Поиск

(Free Jazz/Contemporary Jazz/Latin Jazz) Gato Barbieri - The Complete Flying Dutchman Recordings (1969-1973) (7CD) - 1997, FLAC (tracks+.cue), lossless

(Free Jazz/Contemporary Jazz/Latin Jazz) Gato Barbieri - The Complete Flying Dutchman Recordings (1969-1973) (7CD) - 1997, FLAC (tracks+.cue), lossless
Треклист:
Gato Barbieri - The Complete Flying Dutchman Recordings (1969-1973)
Жанр: Free Jazz/Contemporary Jazz/Latin Jazz
Год выпуска диска: 1997
Производитель диска: France
Аудио кодек: FLAC
Тип рипа: tracks+.cue
Битрейт аудио: lossless
Продолжительность: 04:01:38

CD 1 - The Third World (1969)
01. Introduction - Cancion del Llamero - Tango (11:04)
02. Zealo (8:02)
03. Antonio das Mortes (9:26)
04. Bachianas Brasileiras - Haleo and the Wild Rose (10:59)
CD 2 - Fenix (1971)
01. Tupac Amaru (4:14)
02. Carnavalito (9:09)
03. Falsa Bahiana (5:51)
04. El Dia Que Me Quieras (6:12)
05. El Arriero (7:23)
06. Bahia (6:23)
CD 3 - Under Fire (1973)
01. El Parana (8:58)
02. Yo Le Canto a la Luna (4:49)
03. Antonico (3:48)
04. Maria Domingas (9:28)
05. El Sertao (8:16)
CD 4 - El Pampero (1971)
01. El Pampero (13:43)
02. Mi Buenos Aires Querido (6:18)
03. Brasil (9:59)
04. El Arriero (11:56)
CD 5 - Bolivia (1973)
01. Merceditas (9:07)
02. Eclypse Michellina (6:24)
03. Bolivia (7:46)
04. Ninos (7:15)
05. Vidala Triste (5:31)
CD 6 - Yesterdays (1974)
01. Yesterdays (10:43)
02. A John Coltrane Blues (8:30)
03. Marnie (7:09)
04. Carinoso (10:53)
CD 7 - El Gato (1971)
01. El Gato (12:22)


 
Gato Barbieri - The Complete Flying Dutchman Recordings (1969-1973)


CD 1 - The Third World
Label: Flying Dutchman
Catalog#: 74321257582
Format: CD, Album, Reissue
Country: France
Released: 1970
Genre: Jazz
Style: Free Jazz, Contemporary Jazz, Latin Jazz
Credits:
  1. Gato Barbieri - Tenor saxophone, flute & vocal
  2. Charlie Haden - Bass
  3. Beaver Harris - Drums
  4. Richard Landrum - Percussion
  5. Roswell Rudd - Trombone
  6. Lonnie Liston Smith - Piano
  7. Producer - Bob Thiele
  8. Sound mixing - Tony Salvatore
  9. Cover painting - Patrizia Mancuso
  10. Design - Robert Flynn
Notes: Recorded at the New York City, on November 24 & 25, 1969
CD 2 - Fenix
Label: Flying Dutchman
Catalog#: 74321375062
Format: CD, Album, Reissue
Country: France
Released: 1971
Genre: Jazz
Style: Latin Jazz
Credits:
  1. Gato Barbieri - Tenor saxophone
  2. Nana Vasconcelos - Birimbau & conga
  3. Gene Golden - Conga & bongo drums
  4. Lennie White, III - Drums
  5. Joe Beck - Electric guitar (#1)
  6. Ron Carter - Electric bass
  7. Lonnie Liston Smith - Piano & electric piano
  8. Producer - Bob Thiele
  9. Sound mixers - Gene Paul & Geoff Haslam
  10. Cover painting - Giorgio Poppi
  11. Photo - Charles Stewart
  12. Design - Haig Adishian
Notes: Recorded at the New York City, on April 27 & 28, 1971
CD 3 - Under Fire
Label: Flying Dutchman
Catalog#: 74321375072
Format: CD, Album, Reissue
Country: France
Released: 1973
Genre: Jazz, Latin
Style: Afro-Cuban Jazz, Soul-Jazz, Fusion, Modal
Credits:
  1. Gato Barbieri - Tenor saxophone
  2. Airto Moreira - Drums, percussion
  3. James M'tume - Congas
  4. Roy Haynes - Drums
  5. Lonnie Liston Smith - Piano, electric piano
  6. Stanley Clarke - Bass
  7. John Abercrombie - Electric guitar, acoustic guitar
  8. Moulay Ali Hafid - Dumbeg
  9. Producer - Bob Thiele
  10. Sound Mixer - Tony May
  11. Cover photo - K. Abe
Notes: Recorded in New York City in 1971
CD 4 - El Pampero
Label: Flying Dutchman
Catalog#: 74321313142
Format: CD, Album, Live, Reissue
Country: France
Released: 1971
Genre: Jazz
Style: Afro-Cuban Jazz, Soul-Jazz
Credits:
  1. Gato Barbieri - Tenor saxophone
  2. Lonnie Liston Smith - Piano
  3. Chuck Rainey - Electric bass
  4. Pretty Purdie - Drums
  5. Sonny Morgan - Congas
  6. Nana Vasconcelos - Percussion, birimbau
  7. Producer - Bob Thiele
  8. Sound Mixer - Stephen Sulke
  9. Cover & liner photo - Giuseppe Pino
  10. Design - Haig Adishian
Notes: Recorded at the Montreux Jazz Festival, Switzerland, on June 18, 1971
CD 5 - Bolivia (with Lonnie Liston Smith)
Label: Flying Dutchman
Catalog#: 74321221052
Format: CD, Album, Live, Reissue
Country: France
Released: 1973
Genre: Jazz, Latin
Style: Afro-Cuban Jazz, Bossa Nova, Fusion, Modal, Soul-Jazz
Credits:
  1. Gato Barbieri - Tenor saxophone, flute, vocal, hands
  2. Lonnie Liston Smith - Piano
  3. John Abercrombie - Electric guitar (#1), acoustic guitar (#4-6)
  4. Jean-François Jenny-Clark - Bass (#1-3)
  5. Stanley Clarke - Bass (#2, 4-6)
  6. James M'tume - Congas (#1, 3-6)
  7. Airto Moreira - Percussion (#1), drums (#2-6)
  8. Gene Golden - Congas (#2)
  9. Moulay Ali Hafid - Dumbeg (#5)
  10. Pretty Purdie - Drums (#1)
  11. Producer - Bob Thiele
  12. Cover & liner photos - K. Abe
Notes: Recorded live in New York City in 1973
CD 6 - Yesterdays
Label: Flying Dutchman
Catalog#: 74321477972
Format: CD, Album, Reissue
Country: France
Released: 1974
Genre: Jazz
Style: Afro-Cuban Jazz, Soul-Jazz
Credits:
  1. Gato Barbieri - Tenor saxophone
  2. George Dalto - Piano & electric piano
  3. Ron Carter - Electric bass
  4. Paul Metzke - Electric guitar
  5. Pretty Purdie - Drums
  6. Babafemi - Drums
  7. Raymond Mantilla - Timbales
  8. Producer - Bob Thiele
  9. Engineer - Bob Simpson
  10. Cover photo - Ray Ross


CD 7 - El Gato
Label: Flying Dutchman
Catalog#: 74321545542
Format: CD, Collector
Country: France
Released: 1975
Genre: Jazz
Style: Afro-Cuban Jazz, Soul-Jazz
Credits:
  1. Gato Barbieri - Tenor saxophone
  2. Oliver Nelson - Alto saxophone
  3. Hank Jones - Piano
  4. Ron Carter - Contrabass
  5. David Spinoza - Guitar
  6. Romeo Penque - Alto flute, english horn
  7. Phil Bodner - Flute & alto flute
  8. Danny Bank - Clarinet
  9. Airto Moreira - Percussion
  10. Pretty Purdie - Drums
Notes: Recorded in New York city in 1971
Promotional CD, not for sale


 
EAC
 
CD 1 - The Third World (1969)
Exact Audio Copy V0.99 prebeta 4 from 23. January 2008
EAC extraction logfile from 16. May 2009, 15:22
Gato Barbieri / The Third World
Used drive : PBDS DVD+-RW DS-8W1P Adapter: 0 ID: 0
Read mode : Secure
Utilize accurate stream : Yes
Defeat audio cache : Yes
Make use of C2 pointers : No
Read offset correction : 594
Overread into Lead-In and Lead-Out : No
Fill up missing offset samples with silence : Yes
Delete leading and trailing silent blocks : No
Null samples used in CRC calculations : Yes
Used interface : Native Win32 interface for Win NT & 2000
Gap handling : Appended to previous track
Used output format : User Defined Encoder
Selected bitrate : 128 kBit/s
Quality : High
Add ID3 tag : No
Command line compressor : C:\Program Files\FLAC\flac.exe
Additional command line options : -V -8 -T "artist=%a" -T "title=%t" -T "album=%g" -T "date=%y" -T "tracknumber=%n" -T "genre=%m" %s
TOC of the extracted CD
Track | Start | Length | Start sector | End sector
---------------------------------------------------------
1 | 0:00.33 | 11:04.00 | 33 | 49832
2 | 11:04.33 | 8:02.25 | 49833 | 86007
3 | 19:06.58 | 9:26.12 | 86008 | 128469
4 | 28:32.70 | 10:58.38 | 128470 | 177857
Track 1
Filename F:\EAC Rips\Gato Barbieri,The Third World,01 - Introduction - Cancion del Llamero - Tango.wav
Pre-gap length 0:00:02.44
Peak level 98.3 %
Track quality 100.0 %
Test CRC 79B7A273
Copy CRC 79B7A273
Accurately ripped (confidence 1) [07882016]
Copy OK
Track 2
Filename F:\EAC Rips\Gato Barbieri,The Third World,02 - Zealo.wav
Pre-gap length 0:00:02.00
Peak level 84.3 %
Track quality 100.0 %
Test CRC 4549C536
Copy CRC 4549C536
Accurately ripped (confidence 1) [368EEF82]
Copy OK
Track 3
Filename F:\EAC Rips\Gato Barbieri,The Third World,03 - Antonio das Mortes.wav
Pre-gap length 0:00:02.00
Peak level 90.0 %
Track quality 99.9 %
Test CRC E2F51F06
Copy CRC E2F51F06
Accurately ripped (confidence 1) [1E83910D]
Copy OK
Track 4
Filename F:\EAC Rips\Gato Barbieri,The Third World,04 - Bachianas Brasileiras - Haleo and the Wild Rose.wav
Pre-gap length 0:00:02.00
Peak level 86.1 %
Track quality 99.9 %
Test CRC D579B0CE
Copy CRC D579B0CE
Accurately ripped (confidence 1) [FFE613BC]
Copy OK
All tracks accurately ripped
No errors occurred
End of status report
 
CD 2 - Fenix (1971)
Exact Audio Copy V0.99 prebeta 4 from 23. January 2008
EAC extraction logfile from 16. May 2009, 16:12
Gato Barbieri / Fenix
Used drive : PBDS DVD+-RW DS-8W1P Adapter: 0 ID: 0
Read mode : Secure
Utilize accurate stream : Yes
Defeat audio cache : Yes
Make use of C2 pointers : No
Read offset correction : 594
Overread into Lead-In and Lead-Out : No
Fill up missing offset samples with silence : Yes
Delete leading and trailing silent blocks : No
Null samples used in CRC calculations : Yes
Used interface : Native Win32 interface for Win NT & 2000
Gap handling : Appended to previous track
Used output format : User Defined Encoder
Selected bitrate : 128 kBit/s
Quality : High
Add ID3 tag : No
Command line compressor : C:\Program Files\FLAC\flac.exe
Additional command line options : -V -8 -T "artist=%a" -T "title=%t" -T "album=%g" -T "date=%y" -T "tracknumber=%n" -T "genre=%m" %s
TOC of the extracted CD
Track | Start | Length | Start sector | End sector
---------------------------------------------------------
1 | 0:00.32 | 4:14.35 | 32 | 19116
2 | 4:14.67 | 9:08.63 | 19117 | 60279
3 | 13:23.55 | 5:50.40 | 60280 | 86569
4 | 19:14.20 | 6:12.07 | 86570 | 114476
5 | 25:26.27 | 7:22.70 | 114477 | 147696
6 | 32:49.22 | 6:22.55 | 147697 | 176401
Track 1
Filename F:\EAC Rips\Gato Barbieri,Fenix,01 - Tupac Amaru.wav
Pre-gap length 0:00:02.42
Peak level 95.7 %
Track quality 100.0 %
Test CRC 6B2CC808
Copy CRC 6B2CC808
Track not present in AccurateRip database
Copy OK
Track 2
Filename F:\EAC Rips\Gato Barbieri,Fenix,02 - Carnavalito.wav
Pre-gap length 0:00:01.49
Peak level 92.1 %
Track quality 100.0 %
Test CRC 95386309
Copy CRC 95386309
Track not present in AccurateRip database
Copy OK
Track 3
Filename F:\EAC Rips\Gato Barbieri,Fenix,03 - Falsa Bahiana.wav
Pre-gap length 0:00:01.46
Peak level 94.8 %
Track quality 100.0 %
Test CRC BAF9C4A6
Copy CRC BAF9C4A6
Track not present in AccurateRip database
Copy OK
Track 4
Filename F:\EAC Rips\Gato Barbieri,Fenix,04 - El Dia Que Me Quieras.wav
Pre-gap length 0:00:01.44
Peak level 99.6 %
Track quality 100.0 %
Test CRC 5916D281
Copy CRC 5916D281
Track not present in AccurateRip database
Copy OK
Track 5
Filename F:\EAC Rips\Gato Barbieri,Fenix,05 - El Arriero.wav
Pre-gap length 0:00:02.33
Peak level 99.6 %
Track quality 100.0 %
Test CRC 9BA22D33
Copy CRC 9BA22D33
Track not present in AccurateRip database
Copy OK
Track 6
Filename F:\EAC Rips\Gato Barbieri,Fenix,06 - Bahia.wav
Pre-gap length 0:00:01.89
Peak level 96.2 %
Track quality 100.0 %
Test CRC EF1DD7DC
Copy CRC EF1DD7DC
Track not present in AccurateRip database
Copy OK
None of the tracks are present in the AccurateRip database
No errors occurred
End of status report
 
CD 3 - Under Fire (1973)
Exact Audio Copy V0.99 prebeta 4 from 23. January 2008
EAC extraction logfile from 16. May 2009, 16:48
Gato Barbieri / Under Fire
Used drive : PBDS DVD+-RW DS-8W1P Adapter: 0 ID: 0
Read mode : Secure
Utilize accurate stream : Yes
Defeat audio cache : Yes
Make use of C2 pointers : No
Read offset correction : 594
Overread into Lead-In and Lead-Out : No
Fill up missing offset samples with silence : Yes
Delete leading and trailing silent blocks : No
Null samples used in CRC calculations : Yes
Used interface : Native Win32 interface for Win NT & 2000
Gap handling : Appended to previous track
Used output format : User Defined Encoder
Selected bitrate : 128 kBit/s
Quality : High
Add ID3 tag : No
Command line compressor : C:\Program Files\FLAC\flac.exe
Additional command line options : -V -8 -T "artist=%a" -T "title=%t" -T "album=%g" -T "date=%y" -T "tracknumber=%n" -T "genre=%m" %s
TOC of the extracted CD
Track | Start | Length | Start sector | End sector
---------------------------------------------------------
1 | 0:00.32 | 8:58.15 | 32 | 40396
2 | 8:58.47 | 4:49.15 | 40397 | 62086
3 | 13:47.62 | 3:48.05 | 62087 | 79191
4 | 17:35.67 | 9:28.08 | 79192 | 121799
5 | 27:04.00 | 8:16.17 | 121800 | 159016
Track 1
Filename F:\EAC Rips\Gato Barbieri,Under Fire,01 - El Parana.wav
Pre-gap length 0:00:02.42
Peak level 79.6 %
Track quality 100.0 %
Test CRC D8EA8B75
Copy CRC D8EA8B75
Track not present in AccurateRip database
Copy OK
Track 2
Filename F:\EAC Rips\Gato Barbieri,Under Fire,02 - Yo Le Canto a la Luna.wav
Pre-gap length 0:00:00.89
Peak level 74.5 %
Track quality 99.9 %
Test CRC A1B2C1F5
Copy CRC A1B2C1F5
Track not present in AccurateRip database
Copy OK
Track 3
Filename F:\EAC Rips\Gato Barbieri,Under Fire,03 - Antonico.wav
Pre-gap length 0:00:01.93
Peak level 90.7 %
Track quality 100.0 %
Test CRC C125AE72
Copy CRC C125AE72
Track not present in AccurateRip database
Copy OK
Track 4
Filename F:\EAC Rips\Gato Barbieri,Under Fire,04 - Maria Domingas.wav
Pre-gap length 0:00:01.16
Peak level 89.8 %
Track quality 100.0 %
Test CRC 19193FFC
Copy CRC 19193FFC
Track not present in AccurateRip database
Copy OK
Track 5
Filename F:\EAC Rips\Gato Barbieri,Under Fire,05 - El Sertao.wav
Pre-gap length 0:00:02.26
Peak level 92.4 %
Track quality 100.0 %
Test CRC 24305AA6
Copy CRC 24305AA6
Track not present in AccurateRip database
Copy OK
None of the tracks are present in the AccurateRip database
No errors occurred
End of status report
 
CD 4 - El Pampero (1971)
Exact Audio Copy V0.99 prebeta 4 from 23. January 2008
EAC extraction logfile from 16. May 2009, 17:29
Gato Barbieri / El Pampero
Used drive : PBDS DVD+-RW DS-8W1P Adapter: 0 ID: 0
Read mode : Secure
Utilize accurate stream : Yes
Defeat audio cache : Yes
Make use of C2 pointers : No
Read offset correction : 594
Overread into Lead-In and Lead-Out : No
Fill up missing offset samples with silence : Yes
Delete leading and trailing silent blocks : No
Null samples used in CRC calculations : Yes
Used interface : Native Win32 interface for Win NT & 2000
Gap handling : Appended to previous track
Used output format : User Defined Encoder
Selected bitrate : 128 kBit/s
Quality : High
Add ID3 tag : No
Command line compressor : C:\Program Files\FLAC\flac.exe
Additional command line options : -V -8 -T "artist=%a" -T "title=%t" -T "album=%g" -T "date=%y" -T "tracknumber=%n" -T "genre=%m" %s
TOC of the extracted CD
Track | Start | Length | Start sector | End sector
---------------------------------------------------------
1 | 0:00.32 | 13:43.03 | 32 | 61759
2 | 13:43.35 | 6:18.10 | 61760 | 90119
3 | 20:01.45 | 9:58.40 | 90120 | 135009
4 | 30:00.10 | 11:56.22 | 135010 | 188731
Track 1
Filename F:\EAC Rips\Gato Barbieri,El Pampero,01 - El Pampero.wav
Pre-gap length 0:00:02.42
Peak level 98.3 %
Track quality 100.0 %
Test CRC 49029335
Copy CRC 49029335
Accurately ripped (confidence 1) [5348301E]
Copy OK
Track 2
Filename F:\EAC Rips\Gato Barbieri,El Pampero,02 - Mi Buenos Aires Querido.wav
Pre-gap length 0:00:01.33
Peak level 98.3 %
Track quality 100.0 %
Test CRC 20700826
Copy CRC 20700826
Accurately ripped (confidence 1) [8907B084]
Copy OK
Track 3
Filename F:\EAC Rips\Gato Barbieri,El Pampero,03 - Brasil.wav
Pre-gap length 0:00:01.33
Peak level 98.3 %
Track quality 100.0 %
Test CRC E6226AE0
Copy CRC E6226AE0
Accurately ripped (confidence 1) [BCFCCEDE]
Copy OK
Track 4
Filename F:\EAC Rips\Gato Barbieri,El Pampero,04 - El Arriero.wav
Pre-gap length 0:00:01.00
Peak level 98.3 %
Track quality 99.9 %
Test CRC A722EB12
Copy CRC A722EB12
Accurately ripped (confidence 1) [AABA31C6]
Copy OK
All tracks accurately ripped
No errors occurred
End of status report
 
CD 5 - Bolivia (1973)
Exact Audio Copy V0.99 prebeta 4 from 23. January 2008
EAC extraction logfile from 16. May 2009, 18:05
Gato Barbieri / Bolivia
Used drive : PBDS DVD+-RW DS-8W1P Adapter: 0 ID: 0
Read mode : Secure
Utilize accurate stream : Yes
Defeat audio cache : Yes
Make use of C2 pointers : No
Read offset correction : 594
Overread into Lead-In and Lead-Out : No
Fill up missing offset samples with silence : Yes
Delete leading and trailing silent blocks : No
Null samples used in CRC calculations : Yes
Used interface : Native Win32 interface for Win NT & 2000
Gap handling : Appended to previous track
Used output format : User Defined Encoder
Selected bitrate : 128 kBit/s
Quality : High
Add ID3 tag : No
Command line compressor : C:\Program Files\FLAC\flac.exe
Additional command line options : -V -8 -T "artist=%a" -T "title=%t" -T "album=%g" -T "date=%y" -T "tracknumber=%n" -T "genre=%m" %s
TOC of the extracted CD
Track | Start | Length | Start sector | End sector
---------------------------------------------------------
1 | 0:01.62 | 9:07.03 | 137 | 41164
2 | 9:08.65 | 6:24.12 | 41165 | 69976
3 | 15:33.02 | 7:46.10 | 69977 | 104936
4 | 23:19.12 | 7:14.73 | 104937 | 137559
5 | 30:34.10 | 5:30.60 | 137560 | 162369
Track 1
Filename F:\EAC Rips\Gato Barbieri,Bolivia,01 - Merceditas.wav
Pre-gap length 0:00:03.82
Peak level 100.0 %
Track quality 100.0 %
Test CRC 6E51AF05
Copy CRC 6E51AF05
Accurately ripped (confidence 2) [181F2FAC]
Copy OK
Track 2
Filename F:\EAC Rips\Gato Barbieri,Bolivia,02 - Eclypse Michellina.wav
Pre-gap length 0:00:02.44
Peak level 100.0 %
Track quality 99.9 %
Test CRC 632449F1
Copy CRC 632449F1
Accurately ripped (confidence 2) [61CB34D7]
Copy OK
Track 3
Filename F:\EAC Rips\Gato Barbieri,Bolivia,03 - Bolivia.wav
Pre-gap length 0:00:02.22
Peak level 100.0 %
Track quality 100.0 %
Test CRC 342C03AF
Copy CRC 342C03AF
Accurately ripped (confidence 2) [9921D046]
Copy OK
Track 4
Filename F:\EAC Rips\Gato Barbieri,Bolivia,04 - Ninos.wav
Pre-gap length 0:00:02.53
Peak level 86.1 %
Track quality 99.9 %
Test CRC FC67D224
Copy CRC FC67D224
Accurately ripped (confidence 2) [03EC6BAD]
Copy OK
Track 5
Filename F:\EAC Rips\Gato Barbieri,Bolivia,05 - Vidala Triste.wav
Pre-gap length 0:00:03.73
Peak level 100.0 %
Track quality 100.0 %
Test CRC 19C61807
Copy CRC 19C61807
Accurately ripped (confidence 2) [AA96CACC]
Copy OK
All tracks accurately ripped
No errors occurred
End of status report
 
CD 6 - Yesterdays (1974)
Exact Audio Copy V0.99 prebeta 4 from 23. January 2008
EAC extraction logfile from 16. May 2009, 19:00
Gato Barbieri / Yesterdays
Used drive : PBDS DVD+-RW DS-8W1P Adapter: 0 ID: 0
Read mode : Secure
Utilize accurate stream : Yes
Defeat audio cache : Yes
Make use of C2 pointers : No
Read offset correction : 594
Overread into Lead-In and Lead-Out : No
Fill up missing offset samples with silence : Yes
Delete leading and trailing silent blocks : No
Null samples used in CRC calculations : Yes
Used interface : Native Win32 interface for Win NT & 2000
Gap handling : Appended to previous track
Used output format : User Defined Encoder
Selected bitrate : 128 kBit/s
Quality : High
Add ID3 tag : No
Command line compressor : C:\Program Files\FLAC\flac.exe
Additional command line options : -V -8 -T "artist=%a" -T "title=%t" -T "album=%g" -T "date=%y" -T "tracknumber=%n" -T "genre=%m" %s
TOC of the extracted CD
Track | Start | Length | Start sector | End sector
---------------------------------------------------------
1 | 0:00.00 | 10:43.00 | 0 | 48224
2 | 10:43.00 | 8:30.00 | 48225 | 86474
3 | 19:13.00 | 7:09.00 | 86475 | 118649
4 | 26:22.00 | 10:53.00 | 118650 | 167624
Track 1
Filename F:\EAC Rips\Gato Barbieri,Yesterdays,01 - Yesterdays.wav
Pre-gap length 0:00:02.00
Peak level 78.7 %
Track quality 100.0 %
Test CRC EB65EB5F
Copy CRC EB65EB5F
Track not present in AccurateRip database
Copy OK
Track 2
Filename F:\EAC Rips\Gato Barbieri,Yesterdays,02 - A John Coltrane Blues.wav
Peak level 70.4 %
Track quality 100.0 %
Test CRC 165786CC
Copy CRC 165786CC
Track not present in AccurateRip database
Copy OK
Track 3
Filename F:\EAC Rips\Gato Barbieri,Yesterdays,03 - Marnie.wav
Pre-gap length 0:00:11.00
Peak level 79.3 %
Track quality 99.9 %
Test CRC 9D918660
Copy CRC 9D918660
Track not present in AccurateRip database
Copy OK
Track 4
Filename F:\EAC Rips\Gato Barbieri,Yesterdays,04 - Carinoso.wav
Pre-gap length 0:00:04.00
Peak level 66.5 %
Track quality 100.0 %
Test CRC 64F9233F
Copy CRC 64F9233F
Track not present in AccurateRip database
Copy OK
None of the tracks are present in the AccurateRip database
No errors occurred
End of status report
 
CD 7 - El Gato (1971)
Exact Audio Copy V0.99 prebeta 4 from 23. January 2008
EAC extraction logfile from 16. May 2009, 19:12
Gato Barbieri / El Gato
Used drive : PBDS DVD+-RW DS-8W1P Adapter: 0 ID: 0
Read mode : Secure
Utilize accurate stream : Yes
Defeat audio cache : Yes
Make use of C2 pointers : No
Read offset correction : 594
Overread into Lead-In and Lead-Out : No
Fill up missing offset samples with silence : Yes
Delete leading and trailing silent blocks : No
Null samples used in CRC calculations : Yes
Used interface : Native Win32 interface for Win NT & 2000
Gap handling : Appended to previous track
Used output format : User Defined Encoder
Selected bitrate : 128 kBit/s
Quality : High
Add ID3 tag : No
Command line compressor : C:\Program Files\FLAC\flac.exe
Additional command line options : -V -8 -T "artist=%a" -T "title=%t" -T "album=%g" -T "date=%y" -T "tracknumber=%n" -T "genre=%m" %s
TOC of the extracted CD
Track | Start | Length | Start sector | End sector
---------------------------------------------------------
1 | 0:00.32 | 12:22.00 | 32 | 55681
Track 1
Filename F:\EAC Rips\Gato Barbieri,El Gato,01 - El Gato.wav
Pre-gap length 0:00:02.42
Peak level 98.3 %
Track quality 100.0 %
Test CRC 03D2320F
Copy CRC 03D2320F
Track not present in AccurateRip database
Copy OK
None of the tracks are present in the AccurateRip database
No errors occurred
End of status report
 
CUE
 
CD 1 - The Third World (1969)
REM GENRE Jazz
REM DATE 1969
REM DISCID 2F094304
REM COMMENT "ExactAudioCopy v0.99pb4"
PERFORMER "Gato Barbieri"
TITLE "The Third World"
FILE "Gato Barbieri,The Third World,01 - Introduction - Cancion del Llamero - Tango.wav" WAVE
TRACK 01 AUDIO
TITLE "Introduction - Cancion del Llamero - Tango"
PERFORMER "Gato Barbieri"
PREGAP 00:00:33
INDEX 01 00:00:00
TRACK 02 AUDIO
TITLE "Zealo"
PERFORMER "Gato Barbieri"
INDEX 00 11:02:00
FILE "Gato Barbieri,The Third World,02 - Zealo.wav" WAVE
INDEX 01 00:00:00
TRACK 03 AUDIO
TITLE "Antonio das Mortes"
PERFORMER "Gato Barbieri"
INDEX 00 08:00:25
FILE "Gato Barbieri,The Third World,03 - Antonio das Mortes.wav" WAVE
INDEX 01 00:00:00
TRACK 04 AUDIO
TITLE "Bachianas Brasileiras - Haleo and the Wild Rose"
PERFORMER "Gato Barbieri"
INDEX 00 09:24:12
FILE "Gato Barbieri,The Third World,04 - Bachianas Brasileiras - Haleo and the Wild Rose.wav" WAVE
INDEX 01 00:00:00
 
CD 2 - Fenix (1971)
REM GENRE Jazz
REM DATE 1971
REM DISCID 4B093006
REM COMMENT "ExactAudioCopy v0.99pb4"
PERFORMER "Gato Barbieri"
TITLE "Fenix"
FILE "Gato Barbieri,Fenix,01 - Tupac Amaru.wav" WAVE
TRACK 01 AUDIO
TITLE "Tupac Amaru"
PERFORMER "Gato Barbieri"
PREGAP 00:00:32
INDEX 01 00:00:00
TRACK 02 AUDIO
TITLE "Carnavalito"
PERFORMER "Gato Barbieri"
INDEX 00 04:12:73
FILE "Gato Barbieri,Fenix,02 - Carnavalito.wav" WAVE
INDEX 01 00:00:00
TRACK 03 AUDIO
TITLE "Falsa Bahiana"
PERFORMER "Gato Barbieri"
INDEX 00 09:07:28
FILE "Gato Barbieri,Fenix,03 - Falsa Bahiana.wav" WAVE
INDEX 01 00:00:00
TRACK 04 AUDIO
TITLE "El Dia Que Me Quieras"
PERFORMER "Gato Barbieri"
INDEX 00 05:49:07
FILE "Gato Barbieri,Fenix,04 - El Dia Que Me Quieras.wav" WAVE
INDEX 01 00:00:00
TRACK 05 AUDIO
TITLE "El Arriero"
PERFORMER "Gato Barbieri"
INDEX 00 06:09:57
FILE "Gato Barbieri,Fenix,05 - El Arriero.wav" WAVE
INDEX 01 00:00:00
TRACK 06 AUDIO
TITLE "Bahia"
PERFORMER "Gato Barbieri"
INDEX 00 07:21:03
FILE "Gato Barbieri,Fenix,06 - Bahia.wav" WAVE
INDEX 01 00:00:00
 
CD 3 - Under Fire (1973)
REM GENRE Jazz
REM DATE 1973
REM DISCID 3A084805
REM COMMENT "ExactAudioCopy v0.99pb4"
PERFORMER "Gato Barbieri"
TITLE "Under Fire"
FILE "Gato Barbieri,Under Fire,01 - El Parana.wav" WAVE
TRACK 01 AUDIO
TITLE "El Parana"
PERFORMER "Gato Barbieri"
PREGAP 00:00:32
INDEX 01 00:00:00
TRACK 02 AUDIO
TITLE "Yo Le Canto a la Luna"
PERFORMER "Gato Barbieri"
INDEX 00 08:57:23
FILE "Gato Barbieri,Under Fire,02 - Yo Le Canto a la Luna.wav" WAVE
INDEX 01 00:00:00
TRACK 03 AUDIO
TITLE "Antonico"
PERFORMER "Gato Barbieri"
INDEX 00 04:47:20
FILE "Gato Barbieri,Under Fire,03 - Antonico.wav" WAVE
INDEX 01 00:00:00
TRACK 04 AUDIO
TITLE "Maria Domingas"
PERFORMER "Gato Barbieri"
INDEX 00 03:46:68
FILE "Gato Barbieri,Under Fire,04 - Maria Domingas.wav" WAVE
INDEX 01 00:00:00
TRACK 05 AUDIO
TITLE "El Sertao"
PERFORMER "Gato Barbieri"
INDEX 00 09:25:63
FILE "Gato Barbieri,Under Fire,05 - El Sertao.wav" WAVE
INDEX 01 00:00:00
 
CD 4 - El Pampero (1971)
REM GENRE Jazz
REM DATE 1971
REM DISCID 2209D404
REM COMMENT "ExactAudioCopy v0.99pb4"
PERFORMER "Gato Barbieri"
TITLE "El Pampero"
FILE "Gato Barbieri,El Pampero,01 - El Pampero.wav" WAVE
TRACK 01 AUDIO
TITLE "El Pampero"
PERFORMER "Gato Barbieri"
PREGAP 00:00:32
INDEX 01 00:00:00
TRACK 02 AUDIO
TITLE "Mi Buenos Aires Querido"
PERFORMER "Gato Barbieri"
INDEX 00 13:41:53
FILE "Gato Barbieri,El Pampero,02 - Mi Buenos Aires Querido.wav" WAVE
INDEX 01 00:00:00
TRACK 03 AUDIO
TITLE "Brasil"
PERFORMER "Gato Barbieri"
INDEX 00 06:16:60
FILE "Gato Barbieri,El Pampero,03 - Brasil.wav" WAVE
INDEX 01 00:00:00
TRACK 04 AUDIO
TITLE "El Arriero"
PERFORMER "Gato Barbieri"
INDEX 00 09:57:40
FILE "Gato Barbieri,El Pampero,04 - El Arriero.wav" WAVE
INDEX 01 00:00:00
 
CD 5 - Bolivia (1973)
REM GENRE Jazz
REM DATE 1973
REM DISCID 36087305
REM COMMENT "ExactAudioCopy v0.99pb4"
PERFORMER "Gato Barbieri"
TITLE "Bolivia"
FILE "Gato Barbieri,Bolivia,01 - Merceditas.wav" WAVE
TRACK 01 AUDIO
TITLE "Merceditas"
PERFORMER "Gato Barbieri"
PREGAP 00:01:62
INDEX 01 00:00:00
TRACK 02 AUDIO
TITLE "Eclypse Michellina"
PERFORMER "Gato Barbieri"
INDEX 00 09:04:45
FILE "Gato Barbieri,Bolivia,02 - Eclypse Michellina.wav" WAVE
INDEX 01 00:00:00
TRACK 03 AUDIO
TITLE "Bolivia"
PERFORMER "Gato Barbieri"
INDEX 00 06:21:70
FILE "Gato Barbieri,Bolivia,03 - Bolivia.wav" WAVE
INDEX 01 00:00:00
TRACK 04 AUDIO
TITLE "Ninos"
PERFORMER "Gato Barbieri"
INDEX 00 07:43:45
FILE "Gato Barbieri,Bolivia,04 - Ninos.wav" WAVE
INDEX 01 00:00:00
TRACK 05 AUDIO
TITLE "Vidala Triste"
PERFORMER "Gato Barbieri"
INDEX 00 07:11:18
FILE "Gato Barbieri,Bolivia,05 - Vidala Triste.wav" WAVE
INDEX 01 00:00:00
 
CD 6 - Yesterdays (1974)
REM GENRE Jazz
REM DATE 1974
REM DISCID 2F08BB04
REM COMMENT "ExactAudioCopy v0.99pb4"
PERFORMER "Gato Barbieri"
TITLE "Yesterdays"
FILE "Gato Barbieri,Yesterdays,01 - Yesterdays.wav" WAVE
TRACK 01 AUDIO
TITLE "Yesterdays"
PERFORMER "Gato Barbieri"
INDEX 01 00:00:00
FILE "Gato Barbieri,Yesterdays,02 - A John Coltrane Blues.wav" WAVE
TRACK 02 AUDIO
TITLE "A John Coltrane Blues"
PERFORMER "Gato Barbieri"
INDEX 01 00:00:00
TRACK 03 AUDIO
TITLE "Marnie"
PERFORMER "Gato Barbieri"
INDEX 00 08:19:00
FILE "Gato Barbieri,Yesterdays,03 - Marnie.wav" WAVE
INDEX 01 00:00:00
TRACK 04 AUDIO
TITLE "Carinoso"
PERFORMER "Gato Barbieri"
INDEX 00 07:05:00
FILE "Gato Barbieri,Yesterdays,04 - Carinoso.wav" WAVE
INDEX 01 00:00:00
 
CD 7 - El Gato (1971)
REM GENRE Jazz
REM DATE 1971
REM DISCID 0202E601
REM COMMENT "ExactAudioCopy v0.99pb4"
PERFORMER "Gato Barbieri"
TITLE "El Gato"
FILE "Range.wav" WAVE
TRACK 01 AUDIO
TITLE "El Gato"
PERFORMER "Gato Barbieri"
INDEX 00 00:00:00
INDEX 01 00:00:32

Download available for power users only.
06:21
145
Нет комментариев. Ваш будет первым!