Поиск

(Jazz / Latin Jazz) Torcuato Mariano - So Far From Home - 2009, FLAC (tracks+.cue), lossless

Треклист:
Torcuato Mariano - So Far From Home
Жанр: Jazz / Latin Jazz
Лейбл: NuGroove Records
Год выпуска : 2009
Аудио кодек: FLAC
Тип рипа: tracks+.cue
Битрейт аудио: lossless
Продолжительность: 00:47:59
Признательность за рип: Kopelli

1. So Far From Home (4:01)
2. New World (5:20)
3. Back To The Road (4:56)
4. British Time (4:00)
5. Tell Me Your Dreams (Ft Michael Lington) (4:22)
6. DF (5:18)
7. Ipanema Sunset- (4:57)
8. Midnight Words (5:23)
9. Blues Days (5:27)
10. Magic House (4:15)
 
EAC
EAC extraction logfile from 25. March 2009, 9:14 for CD
Torcuato Mariano / So Far From Home
Used drive : TSSTcorpCD/DVDW SH-S182M Adapter: 0 ID: 0
Read mode : Secure with NO C2, accurate stream, disable cache
Read offset correction : 6
Overread into Lead-In and Lead-Out : No
Used output format : C:\EAC\flac-1.1.2-win\bin\flac.exe (User Defined Encoder)
320 kBit/s
Additional command line options : -8 -V -T "artist=%a" -T "title=%t" -T "album=%g" -T "date=%y" -T "tracknumber=%n" -T "genre=%m" -T "comment=Exact Audio Copy 0.95 b3 Secure Mode / FLAC q8 v. 1.1.2" %s
Other options :
Fill up missing offset samples with silence : Yes
Delete leading and trailing silent blocks : No
Installed external ASPI interface
Track 1
Filename D:\Torcuato Mariano - So Far From Home (2009) [FLAC]\01 - So Far From Home.wav
Pre-gap length 0:00:02.00
Peak level 94.3 %
Track quality 100.0 %
Test CRC A3E71A6A
Copy CRC A3E71A6A
Copy OK
Track 2
Filename D:\Torcuato Mariano - So Far From Home (2009) [FLAC]\02 - New World.wav
Peak level 94.3 %
Track quality 100.0 %
Test CRC F26F544E
Copy CRC F26F544E
Copy OK
Track 3
Filename D:\Torcuato Mariano - So Far From Home (2009) [FLAC]\03 - Back To The Road.wav
Peak level 94.3 %
Track quality 100.0 %
Test CRC D9E37C97
Copy CRC D9E37C97
Copy OK
Track 4
Filename D:\Torcuato Mariano - So Far From Home (2009) [FLAC]\04 - British Time.wav
Peak level 94.3 %
Track quality 100.0 %
Test CRC C97CCF00
Copy CRC C97CCF00
Copy OK
Track 5
Filename D:\Torcuato Mariano - So Far From Home (2009) [FLAC]\05 - Tell Me Your Dreams (Ft Michael Lington).wav
Peak level 94.3 %
Track quality 100.0 %
Test CRC D8A90504
Copy CRC D8A90504
Copy OK
Track 6
Filename D:\Torcuato Mariano - So Far From Home (2009) [FLAC]\06 - DF.wav
Peak level 94.3 %
Track quality 100.0 %
Test CRC 2E708A7E
Copy CRC 2E708A7E
Copy OK
Track 7
Filename D:\Torcuato Mariano - So Far From Home (2009) [FLAC]\07 - Ipanema Sunset-.wav
Peak level 94.3 %
Track quality 99.9 %
Test CRC 5403929E
Copy CRC 5403929E
Copy OK
Track 8
Filename D:\Torcuato Mariano - So Far From Home (2009) [FLAC]\08 - Midnight Words.wav
Peak level 94.3 %
Track quality 100.0 %
Test CRC 9F88DF98
Copy CRC 9F88DF98
Copy OK
Track 9
Filename D:\Torcuato Mariano - So Far From Home (2009) [FLAC]\09 - Blues Days.wav
Peak level 94.3 %
Track quality 100.0 %
Test CRC 5271810F
Copy CRC 5271810F
Copy OK
Track 10
Filename D:\Torcuato Mariano - So Far From Home (2009) [FLAC]\10 - Magic House.wav
Peak level 94.3 %
Track quality 100.0 %
Test CRC A5974FDD
Copy CRC A5974FDD
Copy OK
No errors occured
End of status report
По всем вопросам пишите личное сообщение пользователю M0p94ok.
06:22
167
Нет комментариев. Ваш будет первым!