Поиск

(Contemporary Jazz, Latin Jazz) Michel Camilo - On fire (feat.Dave Weckl, Marc Johnson) - 1989, FLAC (image+.cue), lossless

(Contemporary Jazz, Latin Jazz) Michel Camilo - On fire (feat.Dave Weckl, Marc Johnson) - 1989, FLAC (image+.cue), lossless
Треклист:
Michel Camilo - On fire
Жанр: Contemporary Jazz, Latin Jazz
Год выпуска диска: 1989
Производитель диска: USA
Аудио кодек: FLAC
Тип рипа: image+.cue
Битрейт аудио: lossless
Продолжительность: 51:27
Трэклист:
1. Island Stomp 5:21
2. If You Knew... 3:51
3. Uptown Manhattan 4:49
4. Friends (Interlude II/Suite Sandrine) 4:49
5. Hands & Feet 4:26
6. This Way Out 5:54
7. In Love 5:07
8. ... And Sammy Walked In 5:10
9. Softly, As In a Morning Sunrise (Oscar Hammerstein II/Sigmund Romberg) 5:47
10. On Fire 6:08
All compositions by M. Camilo, except 9th track
Personnel:
Michel Camilo (Piano)
Dave Weckl (Drums) - 1,6,8
Michael Bowie (Bass Guitar) - 1,6,8-10
Marvin "Smitty" Smith (Drums) - 2-4,7,9
Marc Johnson (Bass Guitar) - 2-4,7
Sammy Figueroa (Congas) - 8
Joel Rosenblatt (Drums) - 10
Raul (Flamenco Feet) - 5
Релиз от блога SmallMusic.
 
EAC extraction logfile
Exact Audio Copy V0.99 prebeta 4 from 23. January 2008
EAC extraction logfile from 13. May 2009, 11:38
Michel Camilo / On fire
Used drive : _NEC DVD_RW ND-3500AG Adapter: 0 ID: 0
Read mode : Secure
Utilize accurate stream : Yes
Defeat audio cache : Yes
Make use of C2 pointers : No
Read offset correction : 48
Overread into Lead-In and Lead-Out : No
Fill up missing offset samples with silence : Yes
Delete leading and trailing silent blocks : No
Null samples used in CRC calculations : Yes
Used interface : Native Win32 interface for Win NT & 2000
Used output format : User Defined Encoder
Selected bitrate : 768 kBit/s
Quality : High
Add ID3 tag : No
Command line compressor : C:\Program Files\Exact Audio Copy\FLAC\FLAC.EXE
Additional command line options : -6 -V -T "ARTIST=%a" -T "TITLE=%t" -T "ALBUM=%g" -T "DATE=%y" -T "TRACKNUMBER=%n" -T "GENRE=%m" -T "COMMENT=%e" %s -o %d
TOC of the extracted CD
Track | Start | Length | Start sector | End sector
---------------------------------------------------------
1 | 0:00.00 | 5:21.62 | 0 | 24136
2 | 5:21.62 | 3:51.38 | 24137 | 41499
3 | 9:13.25 | 4:49.35 | 41500 | 63209
4 | 14:02.60 | 4:49.05 | 63210 | 84889
5 | 18:51.65 | 4:25.70 | 84890 | 104834
6 | 23:17.60 | 5:54.30 | 104835 | 131414
7 | 29:12.15 | 5:07.02 | 131415 | 154441
8 | 34:19.17 | 5:10.58 | 154442 | 177749
9 | 39:30.00 | 5:47.17 | 177750 | 203791
10 | 45:17.17 | 6:09.58 | 203792 | 231524
Range status and errors
Selected range
Filename J:\eMusic\Rip\Michel Camilo - On fire.wav
Peak level 100.0 %
Range quality 99.9 %
Copy CRC C797184D
Copy OK
No errors occurred
AccurateRip summary
Track 1 cannot be verified as accurate (confidence 4) [1DDB2356], AccurateRip returned [CDC00064]
Track 2 cannot be verified as accurate (confidence 4) [8D7FD663], AccurateRip returned [547ECFD9]
Track 3 cannot be verified as accurate (confidence 4) [FD014B08], AccurateRip returned [2B398DE1]
Track 4 cannot be verified as accurate (confidence 4) [5BCE7545], AccurateRip returned [CC296AF3]
Track 5 cannot be verified as accurate (confidence 4) [93468635], AccurateRip returned [F1D9F80B]
Track 6 cannot be verified as accurate (confidence 4) [25871DFE], AccurateRip returned [D1CA980C]
Track 7 cannot be verified as accurate (confidence 4) [6C893B94], AccurateRip returned [0DED8969]
Track 8 cannot be verified as accurate (confidence 4) [30A0E7F7], AccurateRip returned [283828CD]
Track 9 cannot be verified as accurate (confidence 4) [CA9C50B0], AccurateRip returned [77B7E8F1]
Track 10 cannot be verified as accurate (confidence 4) [EDB31DEA], AccurateRip returned [A78B48F4]
No tracks could be verified as accurate
You may have a different pressing from the one(s) in the database
End of status report
Рейтинг альбома на АМГ - 4,5. Сэмплы здесь.
Все треки хороши, есть и зажигательные, есть и балладные. Но особенно интересен пятый - "Ноги и руки", который можно обозвать "Степ под рояль".
На инструменте "ноги" играл Рауль.Приятных впечатлений!
Download available for power users only.
06:20
207
Нет комментариев. Ваш будет первым!