Вы используете незарегистрированную версию компонента "Вкладки"!

Поиск

(Free Jazz/Avant-Garde Jazz) Sun Ra - The Heliocentric Worlds of Sun Ra, Vol.1 & 2 - 1965, APE (image+.cue), lossless

(Free Jazz/Avant-Garde Jazz) Sun Ra - The Heliocentric Worlds of Sun Ra, Vol.1 & 2 - 1965, APE (image+.cue), lossless
Треклист:
Sun Ra - The Heliocentric Worlds of Sun Ra, Vol. 1
Жанр: Free Jazz/Avant-Garde Jazz
Год выпуска диска: 2006
Производитель диска: U.S.A.
Аудио кодек: APE
Тип рипа: image+.cue
Битрейт аудио: lossless
Продолжительность: 34:04
Источник: (Free Jazz) Sun Ra - Heliocentric Worlds Vol.1 - 1965, FLAC (image+.cue), lossless
__________________________
Трэклист:
1. Heliocentric
2. Outer Nothingness
3. Other Worlds
4. The Cosmos
5. Of Heavenly Things
6. Nebulae
7. Dancing In The Sun
__________________________
Музыканты:
Sun Ra (p,bass marimba, e-celeste, tympani)
Chris Capers (tp)
Teddy Nance (tb)
Bernard Pettaway (btb)
Marshall Allen (picc, as, bells, spiral cymbal)
Danny Davis (fl, as)
John Gilmore (ts, tympany)
Pat Patric (bs,perc)
Robert Cummings (bcl, wood blocks)
Ronny Boykins (b)
Jimmy Johnson (dr, perc, tympany)
Sun Ra - The Heliocentric Worlds of Sun Ra, Vol. 2
Жанр: Free Jazz/Avant-Garde Jazz
Год выпуска диска: 2000
Производитель диска: Италия
Аудио кодек: APE
Тип рипа: image+.cue
Битрейт аудио: lossless
Продолжительность: 36:45
Источник: Нонейм, автор barin99
__________________________
Трэклист:
1. The Sun Myth 17:53
2. A House of Beauty 4:49
3. Cosmic Chaos 14:48
__________________________
Музыканты:
Sun Ra — piano, tuned bongos and clavioline
Marshall Allen — alto saxophone, piccolo, flute
Pat Patrick — baritone saxophone
Walter Miller — trumpet
John Gilmore — tenor saxophone
Robert Cummings — bass clarinet
Ronnie Boykins — bass
Roger Blank — percussion
 
EAC log Vol 1:
Exact Audio Copy V0.99 prebeta 3 from 28. July 2007
Отчёт EAC об извлечении, выполненном 3. мая 2009, 23:02
Sun Ra / Heliocentric Worlds Vol. 1
Дисковод: HL-DT-STDVD-RAM GSA-H55N Adapter: 0 ID: 0
Режим чтения : Достоверность
Использование точного потока : Да
Отключение кэша аудио : Да
Использование указателей C2 : Нет
Коррекция смещения при чтении : 102
Способность читать области Lead-in и Lead-out : Нет
Заполнение пропущенных сэмплов тишиной : Да
Удаление блоков с тишиной в начале и конце : Нет
При вычислениях CRC использовались нулевые сэмплы : Нет
Интерфейс : Установленный внешний ASPI-интерфейс
Выходной формат : Пользовательский кодировщик
Выбранный битрейт : 768 kBit/s
Качество : Высокий
Добавление ID3-тэга : Нет
Утилита сжатия : C:\Program Files\Exact Audio Copy\FLAC\FLAC.EXE
Дополнительные параметры : -6 -V -T "ARTIST=%a" -T "TITLE=%t" -T "ALBUM=%g" -T "DATE=%y" -T "TRACKNUMBER=%n" -T "GENRE=%m" -T "COMMENT=%e" %s -o %d
TOC извлечённого CD
Трек | Старт | Длительность | Начальный сектор | Конечный сектор
---------------------------------------------------------------------
1 | 0:00.00 | 4:21.43 | 0 | 19617
2 | 4:21.43 | 7:39.13 | 19618 | 54055
3 | 12:00.56 | 4:35.32 | 54056 | 74712
4 | 16:36.13 | 7:31.34 | 74713 | 108571
5 | 24:07.47 | 5:45.59 | 108572 | 134505
6 | 29:53.31 | 3:20.11 | 134506 | 149516
7 | 33:13.42 | 1:56.43 | 149517 | 158259
Характеристики диапазона извлечения и сообщения об ошибках
Выбранный диапазон
Имя файла C:\Users\Миша\Documents\Sun Ra - Heliocentric Worlds Vol. 1\Sun Ra - Heliocentric Worlds Vol. 1.wav
Пиковый уровень 96.5 %
Качество диапазона 100.0 %
CRC копии 35BA1271
Копирование... OK
Ошибок не произошло
AccurateRip: сводка
Трек 1 нет в базе данных
Трек 2 нет в базе данных
Трек 3 нет в базе данных
Трек 4 нет в базе данных
Трек 5 нет в базе данных
Трек 6 нет в базе данных
Трек 7 нет в базе данных
Ни одного трека нет в базе AccurateRip
Конец отчёта
 
EAC log Vol 2:
Exact Audio Copy V0.99 prebeta 4 from 23. January 2008
EAC extraction logfile from 20. January 2010, 22:36
Sun Ra / Heliocentric Worlds Vol. 2
Used drive : HL-DT-STRW/DVD GCC-4242N Adapter: 1 ID: 0
Read mode : Secure
Utilize accurate stream : Yes
Defeat audio cache : Yes
Make use of C2 pointers : No
Read offset correction : 102
Overread into Lead-In and Lead-Out : No
Fill up missing offset samples with silence : Yes
Delete leading and trailing silent blocks : No
Null samples used in CRC calculations : Yes
Used interface : Native Win32 interface for Win NT & 2000
Used output format : Internal WAV Routines
Sample format : 44.100 Hz; 16 Bit; Stereo
TOC of the extracted CD
Track | Start | Length | Start sector | End sector
---------------------------------------------------------
1 | 0:00.00 | 17:53.17 | 0 | 80491
2 | 17:53.17 | 4:49.31 | 80492 | 102197
3 | 22:42.48 | 14:48.22 | 102198 | 168819
Range status and errors
Selected range
Filename C:\_\EAC_Out\Out\Sun Ra - Heliocentric Worlds Vol. 2\Sun Ra - Heliocentric Worlds Vol. 2.wav
Peak level 96.5 %
Range quality 100.0 %
Copy CRC 1FF8B221
Copy OK
No errors occurred
AccurateRip summary
Track 1 cannot be verified as accurate (confidence 2) [A52366FF], AccurateRip returned [67B0E543]
Track 2 cannot be verified as accurate (confidence 2) [240A0998], AccurateRip returned [6993F368]
Track 3 cannot be verified as accurate (confidence 2) [8554F11A], AccurateRip returned [E1C7E0F2]
No tracks could be verified as accurate
You may have a different pressing from the one(s) in the database
End of status report
По всем вопросам пишите личное сообщение пользователю M0p94ok.
19:02
229
Нет комментариев. Ваш будет первым!