Вы используете незарегистрированную версию компонента "Вкладки"!

Поиск

(Avant-Garde Jazz, Modern Creative) Tenko - Slope (Gradual Disappearance) - 1987, FLAC (tracks+.cue), lossless

(Avant-Garde Jazz, Modern Creative) Tenko - Slope (Gradual Disappearance) - 1987, FLAC (tracks+.cue), lossless
Треклист:
Tenko - Slope (Gradual Disappearance)
Жанр: Avant-Garde Jazz, Modern Creative
Год выпуска диска: 1987
Производитель диска: Japan (Shoh)
Аудио кодек: FLAC
Тип рипа: tracks+.cue
Битрейт аудио: lossless
Продолжительность: 40:44
Трэклист:
1. Tenko - Passing through the Night (4:19)
2. Tenko - Somewhere far away (3:41)
3. Tenko - Guitars (1:34)
4. Tenko - I've eaten nuts with different shapes (2:16)
5. Tenko - In the Strawberry Preserves (3:40)
6. Tenko - Sleep Walker (3:18)
7. Tenko - ANTAGATA-DOKO-SA (1:45)
8. Tenko - In horto infinito (2:41)
9. Tenko - The Time Drawers (2:54)
10. Tenko - Gradual Disappearance (2:30)
11. Tenko - Nightrope Dancing (2:33)
12. Tenko - Guitars (2:54)
13. Tenko - Opinion (3:06)
14. Tenko - A Watchdog of the Labyrinth (3:25)
Доп. информация:
TENKO
FRED FRITH
ARTO LINDSAY
CHRISTIAN MARCLAY
DAVID MOSS
KAMURA
NED ROTHENBERG
TOM CORA
WAYNE HORWITZ
ZEENA PARKINS
DAVID LICHT
KRAMER
MOKO

Produced by TENKO & FRED FRITH
Engineer KRAMER
Recording at Noise New York 1987
Mastered by YAMAMOTO MASAYUKI, NAGATA KAZUNAO
Photos by ARAKI YOSHINOBU
Design by TANAKA TOSHIO
 
EAC log
Exact Audio Copy V0.99 prebeta 5 from 4. May 2009
EAC extraction logfile from 18. February 2010, 14:54
Tenko / Slope (Gradual Disappearance)
Used drive : TSSTcorpCDDVDW SH-S203B Adapter: 5 ID: 0
Read mode : Secure
Utilize accurate stream : Yes
Defeat audio cache : Yes
Make use of C2 pointers : No
Read offset correction : 6
Overread into Lead-In and Lead-Out : No
Fill up missing offset samples with silence : Yes
Delete leading and trailing silent blocks : No
Null samples used in CRC calculations : Yes
Used interface : Native Win32 interface for Win NT & 2000
Gap handling : Appended to previous track
Used output format : User Defined Encoder
Selected bitrate : 768 kBit/s
Quality : High
Add ID3 tag : No
Command line compressor : C:\Program Files\FLAC\flac.exe
Additional command line options : -8 -V -T "ARTIST=%a" -T "TITLE=%t" -T "ALBUM=%g" -T "DATE=%y" -T "TRACKNUMBER=%n" -T "GENRE=%m" -T "COMMENT=EAC FLAC -8" %s
TOC of the extracted CD
Track | Start | Length | Start sector | End sector
---------------------------------------------------------
1 | 0:00.00 | 4:19.49 | 0 | 19473
2 | 4:19.49 | 3:41.60 | 19474 | 36108
3 | 8:01.34 | 1:34.33 | 36109 | 43191
4 | 9:35.67 | 2:16.04 | 43192 | 53395
5 | 11:51.71 | 3:40.59 | 53396 | 69954
6 | 15:32.55 | 3:18.13 | 69955 | 84817
7 | 18:50.68 | 1:45.44 | 84818 | 92736
8 | 20:36.37 | 2:41.07 | 92737 | 104818
9 | 23:17.44 | 2:54.39 | 104819 | 117907
10 | 26:12.08 | 2:30.21 | 117908 | 129178
11 | 28:42.29 | 2:33.62 | 129179 | 140715
12 | 31:16.16 | 2:54.34 | 140716 | 153799
13 | 34:10.50 | 3:06.15 | 153800 | 167764
14 | 37:16.65 | 3:25.72 | 167765 | 183211
Track 1
Filename C:\temp\Tenko - Slope (Gradual Disappearance)\01. Tenko - Passing through the Night.wav
Pre-gap length 0:00:02.00
Peak level 99.9 %
Track quality 99.9 %
Test CRC 094833D5
Copy CRC 094833D5
Track not present in AccurateRip database
Copy OK
Track 2
Filename C:\temp\Tenko - Slope (Gradual Disappearance)\02. Tenko - Somewhere far away.wav
Pre-gap length 0:00:01.45
Peak level 50.5 %
Track quality 99.9 %
Test CRC 67506CDB
Copy CRC 67506CDB
Track not present in AccurateRip database
Copy OK
Track 3
Filename C:\temp\Tenko - Slope (Gradual Disappearance)\03. Tenko - Guitars.wav
Pre-gap length 0:00:01.45
Peak level 49.6 %
Track quality 100.0 %
Test CRC 76621795
Copy CRC 76621795
Track not present in AccurateRip database
Copy OK
Track 4
Filename C:\temp\Tenko - Slope (Gradual Disappearance)\04. Tenko - I've eaten nuts with different shapes.wav
Peak level 95.5 %
Track quality 100.0 %
Test CRC 4A6B66C8
Copy CRC 4A6B66C8
Track not present in AccurateRip database
Copy OK
Track 5
Filename C:\temp\Tenko - Slope (Gradual Disappearance)\05. Tenko - In the Strawberry Preserves.wav
Pre-gap length 0:00:01.45
Peak level 84.6 %
Track quality 100.0 %
Test CRC 813E9116
Copy CRC 813E9116
Track not present in AccurateRip database
Copy OK
Track 6
Filename C:\temp\Tenko - Slope (Gradual Disappearance)\06. Tenko - Sleep Walker.wav
Pre-gap length 0:00:01.45
Peak level 65.8 %
Track quality 100.0 %
Test CRC F1F993FF
Copy CRC F1F993FF
Track not present in AccurateRip database
Copy OK
Track 7
Filename C:\temp\Tenko - Slope (Gradual Disappearance)\07. Tenko - ANTAGATA-DOKO-SA.wav
Pre-gap length 0:00:01.45
Peak level 90.0 %
Track quality 99.8 %
Test CRC E934BEB9
Copy CRC E934BEB9
Track not present in AccurateRip database
Copy OK
Track 8
Filename C:\temp\Tenko - Slope (Gradual Disappearance)\08. Tenko - In horto infinito.wav
Pre-gap length 0:00:01.45
Peak level 64.2 %
Track quality 100.0 %
Test CRC 6E01D7C7
Copy CRC 6E01D7C7
Track not present in AccurateRip database
Copy OK
Track 9
Filename C:\temp\Tenko - Slope (Gradual Disappearance)\09. Tenko - The Time Drawers.wav
Pre-gap length 0:00:01.45
Peak level 70.5 %
Track quality 100.0 %
Test CRC A460BFED
Copy CRC A460BFED
Track not present in AccurateRip database
Copy OK
Track 10
Filename C:\temp\Tenko - Slope (Gradual Disappearance)\10. Tenko - Gradual Disappearance.wav
Pre-gap length 0:00:01.45
Peak level 91.5 %
Track quality 100.0 %
Test CRC 301A25E1
Copy CRC 301A25E1
Track not present in AccurateRip database
Copy OK
Track 11
Filename C:\temp\Tenko - Slope (Gradual Disappearance)\11. Tenko - Nightrope Dancing.wav
Pre-gap length 0:00:01.45
Peak level 87.1 %
Track quality 100.0 %
Test CRC 398C42E2
Copy CRC 398C42E2
Track not present in AccurateRip database
Copy OK
Track 12
Filename C:\temp\Tenko - Slope (Gradual Disappearance)\12. Tenko - Guitars.wav
Pre-gap length 0:00:01.45
Peak level 69.7 %
Track quality 100.0 %
Test CRC 32144DE7
Copy CRC 32144DE7
Track not present in AccurateRip database
Copy OK
Track 13
Filename C:\temp\Tenko - Slope (Gradual Disappearance)\13. Tenko - Opinion.wav
Pre-gap length 0:00:02.07
Peak level 82.1 %
Track quality 100.0 %
Test CRC 58EF2DE2
Copy CRC 58EF2DE2
Track not present in AccurateRip database
Copy OK
Track 14
Filename C:\temp\Tenko - Slope (Gradual Disappearance)\14. Tenko - A Watchdog of the Labyrinth.wav
Pre-gap length 0:00:02.07
Peak level 51.3 %
Track quality 100.0 %
Test CRC 40F2B19D
Copy CRC 40F2B19D
Track not present in AccurateRip database
Copy OK
None of the tracks are present in the AccurateRip database
No errors occurred
End of status report
 
CUE
REM GENRE Avantgarde
REM DATE 1987
REM DISCID C2098A0E
REM COMMENT "ExactAudioCopy v0.99pb5"
PERFORMER "Tenko"
TITLE "Slope (Gradual Disappearance)"
FILE "01. Tenko - Passing through the Night.wav" WAVE
TRACK 01 AUDIO
TITLE "Passing through the Night"
PERFORMER "Tenko"
FLAGS DCP
INDEX 01 00:00:00
TRACK 02 AUDIO
TITLE "Somewhere far away"
PERFORMER "Tenko"
FLAGS DCP
INDEX 00 04:18:04
FILE "02. Tenko - Somewhere far away.wav" WAVE
INDEX 01 00:00:00
TRACK 03 AUDIO
TITLE "Guitars"
PERFORMER "Tenko"
FLAGS DCP
INDEX 00 03:40:15
FILE "03. Tenko - Guitars.wav" WAVE
INDEX 01 00:00:00
FILE "04. Tenko - I've eaten nuts with different shapes.wav" WAVE
TRACK 04 AUDIO
TITLE "I've eaten nuts with different shapes"
PERFORMER "Tenko"
FLAGS DCP
INDEX 01 00:00:00
TRACK 05 AUDIO
TITLE "In the Strawberry Preserves"
PERFORMER "Tenko"
FLAGS DCP
INDEX 00 02:14:34
FILE "05. Tenko - In the Strawberry Preserves.wav" WAVE
INDEX 01 00:00:00
TRACK 06 AUDIO
TITLE "Sleep Walker"
PERFORMER "Tenko"
FLAGS DCP
INDEX 00 03:39:14
FILE "06. Tenko - Sleep Walker.wav" WAVE
INDEX 01 00:00:00
TRACK 07 AUDIO
TITLE "ANTAGATA-DOKO-SA"
PERFORMER "Tenko"
FLAGS DCP
INDEX 00 03:16:43
FILE "07. Tenko - ANTAGATA-DOKO-SA.wav" WAVE
INDEX 01 00:00:00
TRACK 08 AUDIO
TITLE "In horto infinito"
PERFORMER "Tenko"
FLAGS DCP
INDEX 00 01:43:74
FILE "08. Tenko - In horto infinito.wav" WAVE
INDEX 01 00:00:00
TRACK 09 AUDIO
TITLE "The Time Drawers"
PERFORMER "Tenko"
FLAGS DCP
INDEX 00 02:39:37
FILE "09. Tenko - The Time Drawers.wav" WAVE
INDEX 01 00:00:00
TRACK 10 AUDIO
TITLE "Gradual Disappearance"
PERFORMER "Tenko"
FLAGS DCP
INDEX 00 02:52:69
FILE "10. Tenko - Gradual Disappearance.wav" WAVE
INDEX 01 00:00:00
TRACK 11 AUDIO
TITLE "Nightrope Dancing"
PERFORMER "Tenko"
FLAGS DCP
INDEX 00 02:28:51
FILE "11. Tenko - Nightrope Dancing.wav" WAVE
INDEX 01 00:00:00
TRACK 12 AUDIO
TITLE "Guitars"
PERFORMER "Tenko"
FLAGS DCP
INDEX 00 02:32:17
FILE "12. Tenko - Guitars.wav" WAVE
INDEX 01 00:00:00
TRACK 13 AUDIO
TITLE "Opinion"
PERFORMER "Tenko"
FLAGS DCP
INDEX 00 02:52:27
FILE "13. Tenko - Opinion.wav" WAVE
INDEX 01 00:00:00
TRACK 14 AUDIO
TITLE "A Watchdog of the Labyrinth"
PERFORMER "Tenko"
FLAGS DCP
INDEX 00 03:04:08
FILE "14. Tenko - A Watchdog of the Labyrinth.wav" WAVE
INDEX 01 00:00:00
Any questions -> support@pro-jazz.com. По всем вопросам пишите -> support@pro-jazz.com
19:03
148
Нет комментариев. Ваш будет первым!