Вы используете незарегистрированную версию компонента "Вкладки"!

Поиск

(modern creative, post-bop , real world records) Portico Quartet - Isla - 2009, FLAC (tracks+.cue), lossless

Треклист:


Portico Quartet - Isla
Жанр: modern creative, post-bop , real world records
Год выпуска: 2009
Формат: FLAC (tracks+.cue)
Битрейт аудио: lossless
Продолжительность
Источник: ed2k

tracks

1. Paper Scissors Stone
2. The Visitor
3. Dawn Patrol
4. Line
5. Life Mask (Interlude)
6. Clipper
7. Life Mask
8. Isla
9. Shed Song (Improv No 1)


 
.log
Exact Audio Copy V0.99 prebeta 5 from 4. May 2009
EAC extraction logfile from 5. January 2010, 18:28
Portico Quartet / Isla
Used drive : BENQ DVD DD DW1640 Adapter: 2 ID: 0
Read mode : Secure
Utilize accurate stream : Yes
Defeat audio cache : Yes
Make use of C2 pointers : No
Read offset correction : 618
Overread into Lead-In and Lead-Out : No
Fill up missing offset samples with silence : Yes
Delete leading and trailing silent blocks : No
Null samples used in CRC calculations : Yes
Used interface : Native Win32 interface for Win NT & 2000
Gap handling : Appended to previous track
Used output format : User Defined Encoder
Selected bitrate : 128 kBit/s
Quality : High
Add ID3 tag : No
Command line compressor : C:\Program Files (x86)\Exact Audio Copy\Flac\flac.exe
Additional command line options : -V -8 -T "artist=%a" -T "title=%t" -T "album=%g" -T "date=%y" -T "tracknumber=%n" -T "genre=%m" %s
TOC of the extracted CD
Track | Start | Length | Start sector | End sector
---------------------------------------------------------
1 | 0:00.00 | 5:27.28 | 0 | 24552
2 | 5:27.28 | 5:30.54 | 24553 | 49356
3 | 10:58.07 | 6:00.05 | 49357 | 76361
4 | 16:58.12 | 7:29.36 | 76362 | 110072
5 | 24:27.48 | 1:15.60 | 110073 | 115757
6 | 25:43.33 | 6:31.07 | 115758 | 145089
7 | 32:14.40 | 7:16.58 | 145090 | 177847
8 | 39:31.23 | 5:09.18 | 177848 | 201040
9 | 44:40.41 | 8:23.17 | 201041 | 238782
Track 1
Filename D:\Portico Quartet\01 - Paper Scissors Stone.wav
Pre-gap length 0:00:02.00
Peak level 98.3 %
Track quality 100.0 %
Test CRC 7A97A714
Copy CRC 7A97A714
Accurately ripped (confidence 3) [E4272DD8]
Copy OK
Track 2
Filename D:\Portico Quartet\02 - The Visitor.wav
Pre-gap length 0:00:03.65
Peak level 98.3 %
Track quality 99.9 %
Test CRC B8055AF2
Copy CRC B8055AF2
Accurately ripped (confidence 3) [3D20284F]
Copy OK
Track 3
Filename D:\Portico Quartet\03 - Dawn Patrol.wav
Pre-gap length 0:00:03.65
Peak level 98.1 %
Track quality 100.0 %
Test CRC 7B75C327
Copy CRC 7B75C327
Accurately ripped (confidence 3) [F5ADA8C8]
Copy OK
Track 4
Filename D:\Portico Quartet\04 - Line.wav
Pre-gap length 0:00:03.65
Peak level 98.4 %
Track quality 100.0 %
Test CRC 887FB9C5
Copy CRC 887FB9C5
Accurately ripped (confidence 3) [BD7AD505]
Copy OK
Track 5
Filename D:\Portico Quartet\05 - Life Mask (Interlude).wav
Pre-gap length 0:00:03.65
Peak level 34.8 %
Track quality 100.0 %
Test CRC 78F3A92F
Copy CRC 78F3A92F
Accurately ripped (confidence 3) [EF74C564]
Copy OK
Track 6
Filename D:\Portico Quartet\06 - Clipper.wav
Pre-gap length 0:00:03.65
Peak level 99.2 %
Track quality 100.0 %
Test CRC 32F20535
Copy CRC 32F20535
Accurately ripped (confidence 3) [0A737313]
Copy OK
Track 7
Filename D:\Portico Quartet\07 - Life Mask.wav
Pre-gap length 0:00:03.65
Peak level 98.2 %
Track quality 100.0 %
Test CRC BE70869C
Copy CRC BE70869C
Accurately ripped (confidence 3) [C52A587E]
Copy OK
Track 8
Filename D:\Portico Quartet\08 - Isla.wav
Pre-gap length 0:00:03.65
Peak level 98.5 %
Track quality 100.0 %
Test CRC 035A19E7
Copy CRC 035A19E7
Accurately ripped (confidence 3) [1E17677C]
Copy OK
Track 9
Filename D:\Portico Quartet\09 - Shed Song (Improv. No 1).wav
Pre-gap length 0:00:03.65
Peak level 88.2 %
Track quality 100.0 %
Test CRC A47583FB
Copy CRC A47583FB
Accurately ripped (confidence 3) [87C70D94]
Copy OK
All tracks accurately ripped
No errors occurred
End of status report
 
.cue
REM GENRE Jazz
REM DATE 2009
REM DISCID 760C6F09
REM COMMENT "ExactAudioCopy v0.99pb5"
PERFORMER "Portico Quartet"
TITLE "Isla"
FILE "01 - Paper Scissors Stone.wav" WAVE
TRACK 01 AUDIO
TITLE "Paper Scissors Stone"
PERFORMER "Portico Quartet"
INDEX 01 00:00:00
TRACK 02 AUDIO
TITLE "The Visitor"
PERFORMER "Portico Quartet"
FLAGS DCP
INDEX 00 05:23:38
FILE "02 - The Visitor.wav" WAVE
INDEX 01 00:00:00
TRACK 03 AUDIO
TITLE "Dawn Patrol"
PERFORMER "Portico Quartet"
FLAGS DCP
INDEX 00 05:26:64
FILE "03 - Dawn Patrol.wav" WAVE
INDEX 01 00:00:00
TRACK 04 AUDIO
TITLE "Line"
PERFORMER "Portico Quartet"
FLAGS DCP
INDEX 00 05:56:15
FILE "04 - Line.wav" WAVE
INDEX 01 00:00:00
TRACK 05 AUDIO
TITLE "Life Mask (Interlude)"
PERFORMER "Portico Quartet"
FLAGS DCP
INDEX 00 07:25:46
FILE "05 - Life Mask (Interlude).wav" WAVE
INDEX 01 00:00:00
TRACK 06 AUDIO
TITLE "Clipper"
PERFORMER "Portico Quartet"
FLAGS DCP
INDEX 00 01:11:70
FILE "06 - Clipper.wav" WAVE
INDEX 01 00:00:00
TRACK 07 AUDIO
TITLE "Life Mask"
PERFORMER "Portico Quartet"
FLAGS DCP
INDEX 00 06:27:17
FILE "07 - Life Mask.wav" WAVE
INDEX 01 00:00:00
TRACK 08 AUDIO
TITLE "Isla"
PERFORMER "Portico Quartet"
FLAGS DCP
INDEX 00 07:12:68
FILE "08 - Isla.wav" WAVE
INDEX 01 00:00:00
TRACK 09 AUDIO
TITLE "Shed Song (Improv. No 1)"
PERFORMER "Portico Quartet"
FLAGS DCP
INDEX 00 05:05:28
FILE "09 - Shed Song (Improv. No 1).wav" WAVE
INDEX 01 00:00:00

другие релизы
Any questions -> support@pro-jazz.com. По всем вопросам пишите -> support@pro-jazz.com
19:02
106
Нет комментариев. Ваш будет первым!