Вы используете незарегистрированную версию компонента "Вкладки"!

Поиск

(Free Jazz) Wilber Morris, David Murray, Dennis Charles - Wilber Force - 2004, FLAC (tracks+.cue), lossless

(Free Jazz) Wilber Morris, David Murray, Dennis Charles - Wilber Force - 2004, FLAC (tracks+.cue), lossless
Треклист:
Wilber Morris, David Murray, Dennis Charles / Wilber Force
Жанр: Free Jazz
Страна-производитель диска: Japan
Год издания: 2004
Издатель (лейбл): DIW Records
Номер по каталогу: DIW 809
Аудиокодек: FLAC (*.flac)
Тип рипа: tracks+.cue
Битрейт аудио: lossless
Продолжительность: 63:35
Источник (релизер): whatcd
Наличие сканов в содержимом раздачи: да
Треклист:
1 Randy 12:55
2 P.C.O.P. #1 10:00
3 Miss Mack 9:05
4 West Indian Folk Song 8:40
5 Afro-Amer. Ind 10:20
6 P.C.O.P. #2 11:35
 
Лог создания рипа
Exact Audio Copy V1.0 beta 3 from 29. August 2011
EAC extraction logfile from 26. August 2012, 16:27
Wilber Morris - David Murray - Dennis Charles / Wilber Force
Used drive : TSSTcorpCDDVDW SH-S222A Adapter: 1 ID: 0
Read mode : Secure
Utilize accurate stream : Yes
Defeat audio cache : Yes
Make use of C2 pointers : No
Read offset correction : 6
Overread into Lead-In and Lead-Out : No
Fill up missing offset samples with silence : Yes
Delete leading and trailing silent blocks : No
Null samples used in CRC calculations : Yes
Used interface : Native Win32 interface for Win NT & 2000
Gap handling : Appended to previous track
Used output format : User Defined Encoder
Selected bitrate : 1024 kBit/s
Quality : High
Add ID3 tag : No
Command line compressor : C:\Tool\CD\EAC10\FLAC\FLAC.EXE
Additional command line options : -8 -V -T "ARTIST=%artist%" -T "TITLE=%title%" -T "ALBUM=%albumtitle%" -T "DATE=%year%" -T "TRACKNUMBER=%tracknr%" -T "GENRE=%genre%" -T "PERFORMER=%albuminterpret%" -T "COMPOSER=%composer%" %haslyrics%--tag-from-file=LYRICS="%lyricsfile%"%haslyrics% -T "ALBUMARTIST=%albumartist%" -T "ALBUM ARTIST=%albumartist%" -T "DISCNUMBER=%cdnumber%" -T "TOTALDISCS=%totalcds%" -T "TOTALTRACKS=%numtracks%" -T "COMMENT=EAC V1.0 beta 3, Secure Mode, Test & Copy, AccurateRip, FLAC -8" %source% -o %dest%
TOC of the extracted CD
Track | Start | Length | Start sector | End sector
---------------------------------------------------------
1 | 0:00.00 | 13:10.17 | 0 | 59266
2 | 13:10.17 | 10:07.08 | 59267 | 104799
3 | 23:17.25 | 9:10.12 | 104800 | 146061
4 | 32:27.37 | 8:44.53 | 146062 | 185414
5 | 41:12.15 | 10:28.40 | 185415 | 232554
6 | 51:40.55 | 11:54.27 | 232555 | 286131
Track 1
Filename C:\! UPLOAD\Wilber Morris - David Murray - Dennis Charles - Wilber Force (2004) [FLAC] {DIW}\01 - Randy.wav
Pre-gap length 0:00:02.00
Peak level 98.1 %
Extraction speed 3.6 X
Track quality 100.0 %
Test CRC BF748279
Copy CRC BF748279
Accurately ripped (confidence 2) [776B8854] (AR v1)
Copy OK
Track 2
Filename C:\! UPLOAD\Wilber Morris - David Murray - Dennis Charles - Wilber Force (2004) [FLAC] {DIW}\02 - P.C.O.P. #1.wav
Peak level 95.8 %
Extraction speed 3.7 X
Track quality 100.0 %
Test CRC 6A8C5A24
Copy CRC 6A8C5A24
Accurately ripped (confidence 2) [92370487] (AR v1)
Copy OK
Track 3
Filename C:\! UPLOAD\Wilber Morris - David Murray - Dennis Charles - Wilber Force (2004) [FLAC] {DIW}\03 - Miss Mack.wav
Peak level 85.2 %
Extraction speed 3.7 X
Track quality 100.0 %
Test CRC E4C833C9
Copy CRC E4C833C9
Accurately ripped (confidence 2) [3F78157F] (AR v1)
Copy OK
Track 4
Filename C:\! UPLOAD\Wilber Morris - David Murray - Dennis Charles - Wilber Force (2004) [FLAC] {DIW}\04 - West Indian Folk Song.wav
Peak level 84.4 %
Extraction speed 3.7 X
Track quality 100.0 %
Test CRC F088854E
Copy CRC F088854E
Accurately ripped (confidence 2) [27DCD2A3] (AR v1)
Copy OK
Track 5
Filename C:\! UPLOAD\Wilber Morris - David Murray - Dennis Charles - Wilber Force (2004) [FLAC] {DIW}\05 - Afro-Amer. Ind.wav
Peak level 88.5 %
Extraction speed 3.7 X
Track quality 100.0 %
Test CRC E6C564F6
Copy CRC E6C564F6
Accurately ripped (confidence 2) [8D3C32BF] (AR v1)
Copy OK
Track 6
Filename C:\! UPLOAD\Wilber Morris - David Murray - Dennis Charles - Wilber Force (2004) [FLAC] {DIW}\06 - P.C.O.P. #2.wav
Peak level 93.2 %
Extraction speed 3.7 X
Track quality 100.0 %
Test CRC 81AF4D42
Copy CRC 81AF4D42
Accurately ripped (confidence 2) [B52482E8] (AR v1)
Copy OK
All tracks accurately ripped
No errors occurred
End of status report
---- CUETools DB Plugin V2.1.3
[CTDB TOCID: 2rhG20bITTkYYm6pD7tbu78VHWw-] disk not present in database, Submit result: 2rhG20bITTkYYm6pD7tbu78VHWw- has been uploaded
==== Log checksum CEB5C96F5D5F9946AAF49630767F6C5A36640A17266DBB0D9F5FA1F228245731 ====
 
Содержание индексной карты (.CUE)
REM GENRE Jazz
REM DATE 2004
REM DISCID 580EE706
REM COMMENT "ExactAudioCopy v1.0b3"
PERFORMER "Wilber Morris - David Murray - Dennis Charles"
TITLE "Wilber Force"
FILE "01 - Randy.wav" WAVE
TRACK 01 AUDIO
TITLE "Randy"
PERFORMER "Wilber Morris - David Murray - Dennis Charles"
INDEX 01 00:00:00
FILE "02 - P.C.O.P. #1.wav" WAVE
TRACK 02 AUDIO
TITLE "P.C.O.P. #1"
PERFORMER "Wilber Morris - David Murray - Dennis Charles"
INDEX 01 00:00:00
FILE "03 - Miss Mack.wav" WAVE
TRACK 03 AUDIO
TITLE "Miss Mack"
PERFORMER "Wilber Morris - David Murray - Dennis Charles"
INDEX 01 00:00:00
FILE "04 - West Indian Folk Song.wav" WAVE
TRACK 04 AUDIO
TITLE "West Indian Folk Song"
PERFORMER "Wilber Morris - David Murray - Dennis Charles"
INDEX 01 00:00:00
FILE "05 - Afro-Amer. Ind.wav" WAVE
TRACK 05 AUDIO
TITLE "Afro-Amer. Ind"
PERFORMER "Wilber Morris - David Murray - Dennis Charles"
INDEX 01 00:00:00
FILE "06 - P.C.O.P. #2.wav" WAVE
TRACK 06 AUDIO
TITLE "P.C.O.P. #2"
PERFORMER "Wilber Morris - David Murray - Dennis Charles"
INDEX 01 00:00:00
Доп. информация: Recorded live at Kwame, NYC on a snowy afternoon, February 6, 1983
 
Об альбоме (сборнике)
For several years, free jazz bassist Wilber Morris had been leading an off-and-on trio with drummer Dennis Charles and either Charles Tyler or David Murray in the tenor saxophone spot. This particular gig included Murray and was recorded live at Kwame in New York City on February 6, 1983, "on a snowy Sunday afternoon," according to the liner notes. The trio tears into originals by Morris and Charles, delivering exactly what you would expect from musicians of this caliber who have spent decades playing together: a heated, collective, free exchange that stands up to repeated listenings. Highly recommended.
 
Состав
Bass – Wilber Morris
Drums – Dennis Charles
Tenor Saxophone, Bass Clarinet – David Murray
Any questions -> support@pro-jazz.com. По всем вопросам пишите -> support@pro-jazz.com
07:57
188
Нет комментариев. Ваш будет первым!