Вы используете незарегистрированную версию компонента "Вкладки"!

Поиск

(Free Improvisation, Modern Creative) Lol Coxhill + Pat Thomas - Halim - 1993, FLAC (tracks+.cue), lossless

(Free Improvisation, Modern Creative) Lol Coxhill + Pat Thomas - Halim - 1993, FLAC (tracks+.cue), lossless
Треклист:
Lol Coxhill + Pat Thomas / Halim
Жанр: Free Improvisation, Modern Creative
Страна-производитель диска: France
Год издания: 1993
Издатель (лейбл): Nato
Номер по каталогу: 53031.2
Аудиокодек: FLAC (*.flac)
Тип рипа: tracks+.cue
Битрейт аудио: lossless
Продолжительность: 45:01
Источник (релизер): whatcd
Наличие сканов в содержимом раздачи: да
Треклист:
1 That Old Black Magic 5:22
2 Halim 5:43
3 On With The Show 6:32
4 Updown Sidney 4:07
5 Tremble 3:00
6 I Can’t Get Started 5:21
7 All Clear 5:22
8 That’s It 3:45
9 King Edward’s Mambo 5:30
 
Лог создания рипа
Exact Audio Copy V1.0 beta 2 from 29. April 2011
EAC extraction logfile from 24. December 2011, 16:21
Lol Coxhill - Pat Thomas / Halim
Used drive : TSSTcorpCDDVDW SH-S222A Adapter: 1 ID: 0
Read mode : Secure
Utilize accurate stream : Yes
Defeat audio cache : Yes
Make use of C2 pointers : No
Read offset correction : 6
Overread into Lead-In and Lead-Out : No
Fill up missing offset samples with silence : Yes
Delete leading and trailing silent blocks : No
Null samples used in CRC calculations : Yes
Used interface : Native Win32 interface for Win NT & 2000
Gap handling : Appended to previous track
Used output format : User Defined Encoder
Selected bitrate : 896 kBit/s
Quality : High
Add ID3 tag : No
Command line compressor : C:\Tool\CD\EAC10\FLAC\FLAC.EXE
Additional command line options : -6 -V -T "ARTIST=%artist%" -T "TITLE=%title%" -T "ALBUM=%albumtitle%" -T "DATE=%year%" -T "TRACKNUMBER=%tracknr%" -T "GENRE=%genre%" -T "COMMENT=%comment%" -T "BAND=%albuminterpret%" -T "COMPOSER=%composer%" %haslyrics%--ta
TOC of the extracted CD
Track | Start | Length | Start sector | End sector
---------------------------------------------------------
1 | 0:00.00 | 5:24.00 | 0 | 24299
2 | 5:24.00 | 5:45.10 | 24300 | 50184
3 | 11:09.10 | 6:35.28 | 50185 | 79837
4 | 17:44.38 | 4:07.42 | 79838 | 98404
5 | 21:52.05 | 3:01.18 | 98405 | 111997
6 | 24:53.23 | 5:23.72 | 111998 | 136294
7 | 30:17.20 | 5:24.73 | 136295 | 160667
8 | 35:42.18 | 3:48.57 | 160668 | 177824
9 | 39:31.00 | 5:30.50 | 177825 | 202624
Track 1
Filename C:\! UPLOAD\Lol Coxhil - Pat Thomas - Halim (1993) [FLAC] {nato}\01 - That old black magic.wav
Pre-gap length 0:00:02.00
Peak level 94.4 %
Extraction speed 2.9 X
Track quality 99.9 %
Test CRC 8968E7B6
Copy CRC 8968E7B6
Track not present in AccurateRip database
Copy OK
Track 2
Filename C:\! UPLOAD\Lol Coxhil - Pat Thomas - Halim (1993) [FLAC] {nato}\02 - Halim.wav
Peak level 94.5 %
Extraction speed 3.2 X
Track quality 100.0 %
Test CRC 53C52092
Copy CRC 53C52092
Track not present in AccurateRip database
Copy OK
Track 3
Filename C:\! UPLOAD\Lol Coxhil - Pat Thomas - Halim (1993) [FLAC] {nato}\03 - On with the show.wav
Peak level 91.5 %
Extraction speed 2.9 X
Track quality 99.9 %
Test CRC 99134401
Copy CRC 99134401
Track not present in AccurateRip database
Copy OK
Track 4
Filename C:\! UPLOAD\Lol Coxhil - Pat Thomas - Halim (1993) [FLAC] {nato}\04 - Updown Sidney.wav
Peak level 96.4 %
Extraction speed 3.1 X
Track quality 100.0 %
Test CRC 40433922
Copy CRC 40433922
Track not present in AccurateRip database
Copy OK
Track 5
Filename C:\! UPLOAD\Lol Coxhil - Pat Thomas - Halim (1993) [FLAC] {nato}\05 - Tremble.wav
Peak level 96.4 %
Extraction speed 2.4 X
Track quality 99.9 %
Test CRC 347F66BF
Copy CRC 347F66BF
Track not present in AccurateRip database
Copy OK
Track 6
Filename C:\! UPLOAD\Lol Coxhil - Pat Thomas - Halim (1993) [FLAC] {nato}\06 - I can_t get started.wav
Peak level 96.4 %
Extraction speed 3.2 X
Track quality 100.0 %
Test CRC DCE69CA9
Copy CRC DCE69CA9
Track not present in AccurateRip database
Copy OK
Track 7
Filename C:\! UPLOAD\Lol Coxhil - Pat Thomas - Halim (1993) [FLAC] {nato}\07 - All clear.wav
Peak level 96.4 %
Extraction speed 3.1 X
Track quality 100.0 %
Test CRC 6BC11836
Copy CRC 6BC11836
Track not present in AccurateRip database
Copy OK
Track 8
Filename C:\! UPLOAD\Lol Coxhil - Pat Thomas - Halim (1993) [FLAC] {nato}\08 - That_s it.wav
Peak level 96.4 %
Extraction speed 2.7 X
Track quality 99.9 %
Test CRC 2CE047FB
Copy CRC 2CE047FB
Track not present in AccurateRip database
Copy OK
Track 9
Filename C:\! UPLOAD\Lol Coxhil - Pat Thomas - Halim (1993) [FLAC] {nato}\09 - King Edward_s mambo.wav
Peak level 96.4 %
Extraction speed 2.8 X
Track quality 99.9 %
Test CRC 849B2FDF
Copy CRC 849B2FDF
Track not present in AccurateRip database
Copy OK
None of the tracks are present in the AccurateRip database
No errors occurred
End of status report
---- CUETools DB Plugin V2.1.2
[CTDB TOCID: XiHdtRJ6r7bysvnHBYIW4tHKqgY-] disk not present in database, Submit result: XiHdtRJ6r7bysvnHBYIW4tHKqgY- has been uploaded
==== Log checksum A8A7984E8D7B001358FDADDC6A13C77570A4FF6C6FDE049025EB70B359DE1208 ====
 
Содержание индексной карты (.CUE)
REM GENRE Jazz
REM DATE 1993
REM DISCID 710A8D09
REM COMMENT "ExactAudioCopy v1.0b2"
PERFORMER "Lol Coxhill - Pat Thomas"
TITLE "Halim"
FILE "01 - That old black magic.wav" WAVE
TRACK 01 AUDIO
TITLE "That old black magic"
PERFORMER "Lol Coxhill - Pat Thomas"
INDEX 01 00:00:00
FILE "02 - Halim.wav" WAVE
TRACK 02 AUDIO
TITLE "Halim"
PERFORMER "Lol Coxhill - Pat Thomas"
INDEX 01 00:00:00
FILE "03 - On with the show.wav" WAVE
TRACK 03 AUDIO
TITLE "On with the show"
PERFORMER "Lol Coxhill - Pat Thomas"
INDEX 01 00:00:00
FILE "04 - Updown Sidney.wav" WAVE
TRACK 04 AUDIO
TITLE "Updown Sidney"
PERFORMER "Lol Coxhill - Pat Thomas"
INDEX 01 00:00:00
FILE "05 - Tremble.wav" WAVE
TRACK 05 AUDIO
TITLE "Tremble"
PERFORMER "Lol Coxhill - Pat Thomas"
INDEX 01 00:00:00
FILE "06 - I can_t get started.wav" WAVE
TRACK 06 AUDIO
TITLE "I can_t get started"
PERFORMER "Lol Coxhill - Pat Thomas"
INDEX 01 00:00:00
FILE "07 - All clear.wav" WAVE
TRACK 07 AUDIO
TITLE "All clear"
PERFORMER "Lol Coxhill - Pat Thomas"
INDEX 01 00:00:00
FILE "08 - That_s it.wav" WAVE
TRACK 08 AUDIO
TITLE "That_s it"
PERFORMER "Lol Coxhill - Pat Thomas"
INDEX 01 00:00:00
FILE "09 - King Edward_s mambo.wav" WAVE
TRACK 09 AUDIO
TITLE "King Edward_s mambo"
PERFORMER "Lol Coxhill - Pat Thomas"
INDEX 01 00:00:00
 
Об альбоме (сборнике)
This duet team is not satisfied to go for out-to-mars solo expeditions of muscle and breath. Nah, the legendary Lol Coxhill, a musically restless duffer has teamed with the much younger Pat Thomas, who is a drummer and DJ by trade, but is really the Nile Rodgers of the underground to come up with a set of funky yet swinging jams for the punters. None of those cats who show up to see Coxhill in the West End pubs in long coats and longer beards are gone be warming up to this little slice of grooved out heaven. The set kicks off with a dancefloor version of "That Old Black Magic," with a triple layer of beats and basslines, and Coxhill runs the melody through one before moving it harmonically inside to test its mettle before bringing it back. They pull this is with the nugget "I Can't Get Started" as well (also known as Bunny Berrigan's theme song). But it's the originals that rock the house the most. The title track finds Thomas creating piano grooves, rubber-banded basslines, and shifty rhythms for Coxhill to improvise over, and he does so, on the beam, in the harmonic body and most definitely in the cut. For "On with the Show," Thomas constructs an African rhythm in triple time, a lucid, McCoy Tyner-like piano line, and Coxhill blows soprano a bit further back in the mix to accent the drums, but he' s soaring right into those piano drones and changes and meeting the accents head on with a limited yet taut melodic statement that makes its own way from the pocket. This is where jazz meets the street groove, the late nightclub minded hipster is going to be making a mess of herself over this. Coxhill's never made a record like it, and Pat Thomas should be producing Janet Jackson or Prince.
 
Состав
Lol Coxhill Sax (Soprano)
Pat Thomas Electronics, Piano
Any questions -> support@pro-jazz.com. По всем вопросам пишите -> support@pro-jazz.com
07:57
261
Нет комментариев. Ваш будет первым!