Вы используете незарегистрированную версию компонента "Вкладки"!

Поиск

( free jazz) Adam Lane Quartet (w/ Vinny Golia, Paul Smoker, Vijay Anderson) - Buffalo (2008), FLAC (tracks+.cue), lossless

( free jazz) Adam Lane Quartet (w/ Vinny Golia, Paul Smoker, Vijay Anderson) - Buffalo (2008), FLAC (tracks+.cue), lossless
Треклист:


Adam Lane Quartet - Buffalo (2008)

Жанр: free jazz
Год выпуска: 2008
Издатель (лейбл):Cadence Jazz / CJR1193
Формат: FLAC (tracks+.cue)
Битрейт аудио: lossless
Продолжительность 1`04`55
Источник: what.cd
Adam Lane: bass
Vinny Golia: tenor saxophone, soprano saxophone
Paul Smoker: trumpet (on tracks 1, 2, 4, 5)
Vijay Anderson: drums

tracks

01 — Spin with the EARth (16:37)
02 — Without Being (16:53)
03 — Free (09:24)
04 — In Our Time (06:54)
05 — Lucia's First Breath (14:58)


 
.log
Exact Audio Copy V0.99 prebeta 5 from 4. May 2009
EAC extraction logfile from 1. May 2011, 7:24
Adam Lane Quartet (Vinny Golia, Paul Smoker, Vijay Anderson) / Buffalo
Used drive : HL-DT-STDVDRAM GH22NS40 Adapter: 3 ID: 0
Read mode : Secure
Utilize accurate stream : Yes
Defeat audio cache : Yes
Make use of C2 pointers : No
Read offset correction : 667
Overread into Lead-In and Lead-Out : No
Fill up missing offset samples with silence : Yes
Delete leading and trailing silent blocks : No
Null samples used in CRC calculations : Yes
Used interface : Native Win32 interface for Win NT & 2000
Gap handling : Appended to previous track
Used output format : User Defined Encoder
Selected bitrate : 768 kBit/s
Quality : High
Add ID3 tag : No
Command line compressor : C:\Program Files\Exact Audio Copy\Flac\flac.exe
TOC of the extracted CD
Track | Start | Length | Start sector | End sector
---------------------------------------------------------
1 | 0:00.00 | 16:37.35 | 0 | 74809
2 | 16:37.35 | 16:56.26 | 74810 | 151035
3 | 33:33.61 | 9:28.01 | 151036 | 193636
4 | 43:01.62 | 6:57.28 | 193637 | 224939
5 | 49:59.15 | 14:56.11 | 224940 | 292150
Track 1
Filename C:\Users\Ilya\Downloads\(000)_CIMP\(2008) Adam Lane Quartet (Vinny Golia, Paul Smoker, Vijay Anderson) - Buffalo {Cadence Jazz}\01 - Spin with the EARth.wav
Pre-gap length 0:00:02.00
Peak level 99.9 %
Track quality 100.0 %
Test CRC 96558535
Copy CRC 96558535
Cannot be verified as accurate (confidence 1) [7AEF61F7], AccurateRip returned [F14051B3]
Copy OK
Track 2
Filename C:\Users\Ilya\Downloads\(000)_CIMP\(2008) Adam Lane Quartet (Vinny Golia, Paul Smoker, Vijay Anderson) - Buffalo {Cadence Jazz}\02 - Without Being.wav
Pre-gap length 0:00:02.77
Peak level 100.0 %
Track quality 100.0 %
Test CRC 5AA97C67
Copy CRC 5AA97C67
Cannot be verified as accurate (confidence 1) [D2EBBDDF], AccurateRip returned [D25A366B]
Copy OK
Track 3
Filename C:\Users\Ilya\Downloads\(000)_CIMP\(2008) Adam Lane Quartet (Vinny Golia, Paul Smoker, Vijay Anderson) - Buffalo {Cadence Jazz}\03 - Free.wav
Pre-gap length 0:00:02.76
Peak level 99.9 %
Track quality 100.0 %
Test CRC 705D14F7
Copy CRC 705D14F7
Cannot be verified as accurate (confidence 1) [7A14F662], AccurateRip returned [ECA89276]
Copy OK
Track 4
Filename C:\Users\Ilya\Downloads\(000)_CIMP\(2008) Adam Lane Quartet (Vinny Golia, Paul Smoker, Vijay Anderson) - Buffalo {Cadence Jazz}\04 - In Our Time.wav
Pre-gap length 0:00:02.76
Peak level 100.0 %
Track quality 100.0 %
Test CRC 55C172CE
Copy CRC 55C172CE
Cannot be verified as accurate (confidence 1) [23B0B038], AccurateRip returned [745BF0B8]
Copy OK
Track 5
Filename C:\Users\Ilya\Downloads\(000)_CIMP\(2008) Adam Lane Quartet (Vinny Golia, Paul Smoker, Vijay Anderson) - Buffalo {Cadence Jazz}\05 - Lucia's First Breath (Intonations for February 14).wav
Pre-gap length 0:00:02.76
Peak level 99.9 %
Track quality 100.0 %
Test CRC 8282E2D3
Copy CRC 8282E2D3
Cannot be verified as accurate (confidence 1) [EB321DC6], AccurateRip returned [C68047DF]
Copy OK
No tracks could be verified as accurate
You may have a different pressing from the one(s) in the database
No errors occurred
End of status report
 
.cue
REM GENRE Jazz
REM DATE 2008
REM DISCID 3B0F3705
REM COMMENT "ExactAudioCopy v0.99pb5"
PERFORMER "Adam Lane Quartet"
TITLE "Buffalo"
FILE "01 - Spin with the EARth.wav" WAVE
TRACK 01 AUDIO
TITLE "Spin with the EARth"
PERFORMER "Adam Lane Quartet"
INDEX 01 00:00:00
TRACK 02 AUDIO
TITLE "Without Being"
PERFORMER "Adam Lane Quartet"
INDEX 00 16:34:52
FILE "02 - Without Being.wav" WAVE
INDEX 01 00:00:00
TRACK 03 AUDIO
TITLE "Free"
PERFORMER "Adam Lane Quartet"
INDEX 00 16:53:44
FILE "03 - Free.wav" WAVE
INDEX 01 00:00:00
TRACK 04 AUDIO
TITLE "In Our Time"
PERFORMER "Adam Lane Quartet"
INDEX 00 09:25:19
FILE "04 - In Our Time.wav" WAVE
INDEX 01 00:00:00
TRACK 05 AUDIO
TITLE "Lucia's First Breath (Intonations for February 14)"
PERFORMER "Adam Lane Quartet"
INDEX 00 06:54:46
FILE "05 - Lucia's First Breath (Intonations for February 14).wav" WAVE
INDEX 01 00:00:00

другие релизы
Any questions -> support@pro-jazz.com. По всем вопросам пишите -> support@pro-jazz.com
07:56
209
Нет комментариев. Ваш будет первым!