Поиск

(Free jazz) Wadada Leo Smith & Anthony Braxton-Organic Resonance - 2003, APE (image+.cue), lossless

Треклист:
Wadada Leo Smith & Anthony Braxton-Organic Resonance
Жанр: Free jazz
Год выпуска диска: 2003
Производитель диска: PI Recordings
Аудио кодек: APE
Тип рипа: image+.cue
Битрейт аудио: lossless
Продолжительность: 53:18
Трэклист:
1 Tawaf \ Smith 11:48
2 Composition, No. 314\ Braxton 15:13
3 Composition, No. 315 \ Braxton 16:39
4 A Celestial Bow, Stone Rivers and Silver Stars Overlayed in Red\ Smith 9:37

Ornette Coleman- Cover Painting
Доп. информация: Рип сделан собственноручно,сканы внутри.
 
Отчёт EAC об извлечении
Exact Audio Copy V0.99 prebeta 3 from 28. July 2007
Отчёт EAC об извлечении, выполненном 16. августа 2008, 19:07
Wadada Leo Smith & Anthony Braxton / Organic Resonance
Дисковод: Optiarc DVD RW AD-7203A Adapter: 0 ID: 1
Режим чтения : Достоверность
Использование точного потока : Да
Отключение кэша аудио : Да
Использование указателей C2 : Нет
Коррекция смещения при чтении : 48
Способность читать области Lead-in и Lead-out : Нет
Заполнение пропущенных сэмплов тишиной : Да
Удаление блоков с тишиной в начале и конце : Нет
При вычислениях CRC использовались нулевые сэмплы : Да
Интерфейс : Установленный внешний ASPI-интерфейс
Выходной формат : Monkey's Audio Lossless Encoder v3.99 DLL
Формат сэмплов : Normal Lossless Compression
TOC извлечённого CD
Трек | Старт | Длительность | Начальный сектор | Конечный сектор
---------------------------------------------------------------------
1 | 0:00.00 | 11:48.18 | 0 | 53117
2 | 11:48.18 | 15:13.18 | 53118 | 121610
3 | 27:01.36 | 16:39.21 | 121611 | 196556
4 | 43:40.57 | 9:37.61 | 196557 | 239892
Характеристики диапазона извлечения и сообщения об ошибках
Выбранный диапазон
Имя файла C:\Documents and Settings\1\Рабочий стол\Wadada Leo Smith & Anthony Braxton - Organic Resonance.ape
Пиковый уровень 98.8 %
Качество диапазона 100.0 %
CRC теста 34D4A204
CRC копии 34D4A204
Копирование... OK
Ошибок не произошло
AccurateRip: сводка
Трек 1 нет в базе данных
Трек 2 нет в базе данных
Трек 3 нет в базе данных
Трек 4 нет в базе данных
Ни одного трека нет в базе AccurateRip
Конец отчёта
Приватный:
Нет (DHT включён)
Размер:
233.77 Мб (245,127,335 байт) » файлов: 11
Участники:
0 раздают, 0 качают (0 участников всего)
Внешние участники:
2 раздают, 1 качают (3 участников всего) [ Обновить ]
No seeders - write a personal message to user M0p94ok. Нет сидеров - пишите личное сообщение пользователю M0p94ok.
03:04
60
Нет комментариев. Ваш будет первым!