Поиск

(Experimental Jazz) Matthew Shipp - Piano Vortex - 2007, FLAC (image+.cue), lossless

(Experimental Jazz) Matthew Shipp - Piano Vortex - 2007, FLAC (image+.cue), lossless
Треклист:
Matthew Shipp - Piano Vortex
Жанр: Experimental Jazz
Год выпуска диска: 2007
Производитель диска: Thirsty Ear
Аудио кодек: FLAC
Тип рипа: image+.cue
Битрейт аудио: lossless
Продолжительность: 53;16
Трэклист:
1. Piano Vortex - 10.26
2. Key Swing - 3:21
3.The New Circumstance - 9:11
4. Nooks and Corners - 4:10
5. Sliding Through Space - 8:54
6. Quivering with Speed - 6:38
7. Slips Through the Fingers - 3:17
8. To Vitalize - 7:13
Matthew Shipp - Piano.
Joe Morris - Bass.
Whit Dickey - Drums.
Доп. информация: Exact Audio Copy V0.99 prebeta 4 from 23. January 2008
 
скрытый текст
Отчёт EAC об извлечении, выполненном 19. августа 2008, 0:07
Matthew Shipp / Piano Vortex
Дисковод: Optiarc DVD RW AD-7203A Adapter: 0 ID: 0
Режим чтения : Достоверность
Использование точного потока : Да
Отключение кэша аудио : Да
Использование указателей C2 : Нет
Коррекция смещения при чтении : 48
Способность читать области Lead-in и Lead-out : Нет
Заполнение пропущенных сэмплов тишиной : Да
Удаление блоков с тишиной в начале и конце : Нет
При вычислениях CRC использовались нулевые сэмплы : Нет
Интерфейс : Установленный внешний ASPI-интерфейс
Выходной формат : Внутренние WAV-операции
Формат сэмплов : 44.100 Гц; 16 бит; стерео
TOC извлечённого CD
Трек | Старт | Длительность | Начальный сектор | Конечный сектор
---------------------------------------------------------------------
1 | 0:00.00 | 10:26.44 | 0 | 46993
2 | 10:26.44 | 3:21.30 | 46994 | 62098
3 | 13:47.74 | 9:11.51 | 62099 | 103474
4 | 22:59.50 | 4:10.29 | 103475 | 122253
5 | 27:10.04 | 8:54.34 | 122254 | 162337
6 | 36:04.38 | 6:38.59 | 162338 | 192246
7 | 42:43.22 | 3:17.27 | 192247 | 207048
8 | 46:00.49 | 7:13.29 | 207049 | 239552
Характеристики диапазона извлечения и сообщения об ошибках
Выбранный диапазон
Имя файла D:\Мои документы\Torrents\Matthew Shipp - Piano Vortex.wav
Пиковый уровень 81.0 %
Качество диапазона 100.0 %
CRC копии D53BBF94
Копирование... OK
Ошибок не произошло
Конец отчёта
Приватный:
Нет (DHT включён)
Размер:
218.97 Мб (229,608,613 байт) » файлов: 3
Участники:
0 раздают, 0 качают (0 участников всего)
Внешние участники:
1 раздают, 0 качают (1 участников всего) [ Обновить ]
No seeders - write a personal message to user M0p94ok. Нет сидеров - пишите личное сообщение пользователю M0p94ok.
03:05
56
Нет комментариев. Ваш будет первым!