Поиск

(Avant-garde) Arcado String Trio - 1989, FLAC (image+.cue), lossless

(Avant-garde) Arcado String Trio - 1989, FLAC (image+.cue), lossless
Треклист:
Arcado String Trio
Жанр: Avant-garde
Год выпуска диска: 1989
Производитель диска: Germany
Аудио кодек: FLAC
Тип рипа: image+.cue
Битрейт аудио: lossless
Продолжительность: 51:28
Hank Roberts cello
Mark Dresser double bass
Mark Feldman violin
Gartman's
Giffin' Leroy
Subtonium # Three
Kraine
Living Bicycles
Pastoral
Curve Ball
Ethel
West Bank Cindy
Digitally recorded and mixed February 1989 at Bauer Studios, Ludwigsburg.
On track 3 to 6 the instruments were electronically processed.
 
EAC Report
Exact Audio Copy V0.99 prebeta 4 from 23. January 2008
EAC extraction logfile from 26. July 2008, 21:02
Arcado / Arcado
Used drive : TSSTcorpCD/DVDW SH-S182M Adapter: 2 ID: 1
Read mode : Secure
Utilize accurate stream : Yes
Defeat audio cache : Yes
Make use of C2 pointers : No
Read offset correction : 6
Overread into Lead-In and Lead-Out : No
Fill up missing offset samples with silence : Yes
Delete leading and trailing silent blocks : No
Null samples used in CRC calculations : No
Used interface : Installed external ASPI interface
Used output format : User Defined Encoder
Selected bitrate : 1024 kBit/s
Quality : High
Add ID3 tag : No
Command line compressor : C:\Program Files\Exact Audio Copy\FLAC\FLAC.EXE
Additional command line options : -6 -V -T "ARTIST=%a" -T "TITLE=%t" -T "ALBUM=%g" -T "DATE=%y" -T "TRACKNUMBER=%n" -T "GENRE=%m" -T "COMMENT=%e" %s -o %d
TOC of the extracted CD
Track | Start | Length | Start sector | End sector
---------------------------------------------------------
1 | 0:00.33 | 11:41.00 | 33 | 52607
2 | 11:41.33 | 0:24.00 | 52608 | 54407
3 | 12:05.33 | 12:22.00 | 54408 | 110057
4 | 24:27.33 | 0:32.00 | 110058 | 112457
5 | 24:59.33 | 5:52.00 | 112458 | 138857
6 | 30:51.33 | 0:49.00 | 138858 | 142532
7 | 31:40.33 | 12:11.00 | 142533 | 197357
8 | 43:51.33 | 0:33.00 | 197358 | 199832
9 | 44:24.33 | 7:04.00 | 199833 | 231632
Range status and errors
Selected range
Filename F:\z\Arcado - Arcado.wav
Peak level 70.9 %
Range quality 100.0 %
Copy CRC 211F8D5E
Copy OK
No errors occurred
AccurateRip summary
Track 1 not present in database
Track 2 not present in database
Track 3 not present in database
Track 4 not present in database
Track 5 not present in database
Track 6 not present in database
Track 7 not present in database
Track 8 not present in database
Track 9 not present in database
None of the tracks are present in the AccurateRip database
End of status report

Приватный:
Нет (DHT включён)
Размер:
210.41 Мб (220,635,533 байт) » файлов: 5
Участники:
0 раздают, 0 качают (0 участников всего)
Внешние участники:
2 раздают, 1 качают (3 участников всего) [ Обновить ]
No seeders - write a personal message to user M0p94ok. Нет сидеров - пишите личное сообщение пользователю M0p94ok.
03:03
57
Нет комментариев. Ваш будет первым!