Поиск

(Jazz) Bill Frisell - Nashville - 1997, FLAC (.cue + lossless)

(Jazz) Bill Frisell - Nashville - 1997, FLAC (.cue + lossless)
Треклист:
Bill Frisell - Nashville
Жанр: Jazz
Год выпуска диска: 1997
Аудио кодек: FLAC
Тип рипа: tracks
Битрейт аудио: lossless
Продолжительность: 63:04
Трэклист:
Gimme a Holler Frisell 5:05
Go Jake Frisell 4:27
One of These Days Young 4:52
Mr. Memory Frisell 3:58
Brother Frisell 6:02
Will Jesus Wash the Bloodstains from Your Hands Dickens 3:08
Keep Your Eyes Open Frisell 3:30
Pipe Down Frisell 6:50
Family Frisell 5:21
We're Not from Around Here Frisell 4:26
Dogwood Acres Frisell 5:29
Shucks Frisell 4:15
The End of the World Dee, Kent 3:33
Gone Frisell 2:0
Доп. информация: http://www.allmusic.com/cg/amg.dll?p=amg&sql=10:wvfexqlhldse
 
Отчёт EAC
Exact Audio Copy V0.99 prebeta 4 from 23. January 2008
Отчёт EAC об извлечении, выполненном 12. августа 2008, 22:58
Bill Frisell / Nashville
Дисковод: Optiarc DVD RW AD-7173A Adapter: 1 ID: 0
Режим чтения : Достоверность
Использование точного потока : Да
Отключение кэша аудио : Да
Использование указателей C2 : Нет
Коррекция смещения при чтении : 48
Способность читать области Lead-in и Lead-out : Нет
Заполнение пропущенных сэмплов тишиной : Да
Удаление блоков с тишиной в начале и конце : Нет
При вычислениях CRC использовались нулевые сэмплы : Нет
Интерфейс : Встроенный Win32-интерфейс для Win NT/2000
Выходной формат : Пользовательский кодировщик
Выбранный битрейт : 768 kBit/s
Качество : Высокий
Добавление ID3-тэга : Нет
Утилита сжатия : C:\Programs (D)\Exact Audio Copy\FLAC\FLAC.EXE
Дополнительные параметры : -6 -V -T "ARTIST=%a" -T "TITLE=%t" -T "ALBUM=%g" -T "DATE=%y" -T "TRACKNUMBER=%n" -T "GENRE=%m" -T "COMMENT=%e" %s -o %d
TOC извлечённого CD
Трек | Старт | Длительность | Начальный сектор | Конечный сектор
---------------------------------------------------------------------
1 | 0:00.00 | 5:05.37 | 0 | 22911
2 | 5:05.37 | 4:27.20 | 22912 | 42956
3 | 9:32.57 | 4:52.08 | 42957 | 64864
4 | 14:24.65 | 3:58.72 | 64865 | 82786
5 | 18:23.62 | 6:03.00 | 82787 | 110011
6 | 24:26.62 | 3:08.60 | 110012 | 124171
7 | 27:35.47 | 3:30.40 | 124172 | 139961
8 | 31:06.12 | 6:50.28 | 139962 | 170739
9 | 37:56.40 | 5:21.55 | 170740 | 194869
10 | 43:18.20 | 4:26.40 | 194870 | 214859
11 | 47:44.60 | 5:29.10 | 214860 | 239544
12 | 53:13.70 | 4:15.25 | 239545 | 258694
13 | 57:29.20 | 3:33.32 | 258695 | 274701
14 | 61:02.52 | 2:00.10 | 274702 | 283711
Характеристики диапазона извлечения и сообщения об ошибках
Выбранный диапазон
Имя файла D:\Torrents\uTorrent\CD rips\Bill Frisell - Nashville.wav
Пиковый уровень 100.0 %
Качество диапазона 99.9 %
CRC копии 38F24206
Копирование... OK
Ошибок не произошло
AccurateRip: сводка
Трек 1 точное извлечение (доверие 2) [D0B6780F]
Трек 2 точное извлечение (доверие 2) [E1DDC8D9]
Трек 3 точное извлечение (доверие 2) [C001B55C]
Трек 4 точное извлечение (доверие 2) [E72536F7]
Трек 5 точное извлечение (доверие 2) [773EB969]
Трек 6 точное извлечение (доверие 2) [05BEAC18]
Трек 7 точное извлечение (доверие 2) [B77571BD]
Трек 8 нет в базе данных
Трек 9 точное извлечение (доверие 2) [C09F0857]
Трек 10 точное извлечение (доверие 2) [BA2A1E6C]
Трек 11 точное извлечение (доверие 2) [192F446E]
Трек 12 точное извлечение (доверие 2) [FE82A5EC]
Трек 13 точное извлечение (доверие 2) [6BECFE46]
Трек 14 точное извлечение (доверие 2) [AB8E75FD]
13 трек(и) скопированы точно
1 трек(и) не содержатся в базе AccurateRip
Некоторые треки не прошли проверку на точность
Конец отчёта
Приватный:
Нет (DHT включён)
Размер:
302.03 Мб (316,698,299 байт) » файлов: 3
Участники:
0 раздают, 0 качают (0 участников всего)
Внешние участники:
7 раздают, 2 качают (9 участников всего) [ Обновить ]
No seeders - write a personal message to user M0p94ok. Нет сидеров - пишите личное сообщение пользователю M0p94ok.
03:03
38
Нет комментариев. Ваш будет первым!