Вы используете незарегистрированную версию компонента "Вкладки"!

Поиск

(free jazz) Vinny Golia / Joelle Leandre / Ken Filiano ‎– Haunting The Spirits Inside Them... 1996[cd] , FLAC (image+.cue), lossless

(free jazz) Vinny Golia / Joelle Leandre / Ken Filiano ‎– Haunting The Spirits Inside Them... 1996[cd] , FLAC (image+.cue), lossless
Треклист:
(free jazz) Vinny Golia / Joelle Leandre / Ken Filiano ‎– Haunting The Spirits Inside Them... 1996[cd] , FLAC (image+.cue), lossless


Vinny Golia / Joelle Leandre / Ken Filiano
Haunting The Spirits Inside Them...
Жанр:free jazz
Год выпуска: 1996
Издатель (лейбл): Music And Arts Programs Of America, Inc. ‎– CD-893
Формат: FLAC (image+.cue)
Битрейт аудио: lossless
Продолжительность 1`13`05
Источник: rutracker.org , harakiri29

tracks

01 Kaprona 14:42
02 None That Are For Hugo 7:30
03 The Pot is Broken and the Flower is Gone 6:24
04 Dream Commandos 4:02
05 Above the Age of Reason 8:41
06 Empty Places Where We Walk 9:59
07 Each One Starts Another 8:52
08 In keeping with the situation... 12:33


 
.log
Exact Audio Copy V0.99 prebeta 4 from 23. January 2008
Отчёт EAC об извлечении, выполненном 7. мая 2009, 2:30
Golia Leandre Filiano / haunting the spirits inside them...
Дисковод: TSSTcorpCDDVDW SH-S203D Adapter: 3 ID: 0
Режим чтения : Достоверность
Использование точного потока : Да
Отключение кэша аудио : Да
Использование указателей C2 : Нет
Коррекция смещения при чтении : 6
Способность читать области Lead-in и Lead-out : Нет
Заполнение пропущенных сэмплов тишиной : Да
Удаление блоков с тишиной в начале и конце : Нет
При вычислениях CRC использовались нулевые сэмплы : Да
Интерфейс : Установленный внешний ASPI-интерфейс
Выходной формат : Внутренние WAV-операции
Формат сэмплов : 44.100 Гц; 16 бит; стерео
TOC извлечённого CD
Трек | Старт | Длительность | Начальный сектор | Конечный сектор
---------------------------------------------------------------------
1 | 0:00.00 | 14:45.62 | 0 | 66436
2 | 14:45.62 | 7:34.00 | 66437 | 100486
3 | 22:19.62 | 6:27.00 | 100487 | 129511
4 | 28:46.62 | 4:02.00 | 129512 | 147661
5 | 32:48.62 | 8:46.00 | 147662 | 187111
6 | 41:34.62 | 10:02.00 | 187112 | 232261
7 | 51:36.62 | 8:55.00 | 232262 | 272386
8 | 60:31.62 | 12:33.13 | 272387 | 328874
Характеристики диапазона извлечения и сообщения об ошибках
Выбранный диапазон
Имя файла F:\FOS\Music\Golia Vinny\Golia - Leandre - Filiano - haunting the spirits inside them... - 1996\Golia Leandre Filiano - haunting the spirits inside them....wav
Пиковый уровень 91.5 %
Качество диапазона 100.0 %
CRC копии 0D9532CB
Копирование... OK
Ошибок не произошло
Конец отчёта
 
.cue
REM GENRE jazz
REM DISCID 7D112108
REM COMMENT "ExactAudioCopy v0.99pb4"
PERFORMER "Golia Leandre Filiano"
TITLE "haunting the spirits inside them..."
FILE "haunting the spirits inside them....flac" WAVE
TRACK 01 AUDIO
TITLE "Kaprona"
PERFORMER "Golia Leandre Filiano"
INDEX 01 00:00:00
TRACK 02 AUDIO
TITLE "None That Are For Hugo"
PERFORMER "Golia Leandre Filiano"
INDEX 01 14:45:62
TRACK 03 AUDIO
TITLE "The Pot is Broken and the Flower is Gone"
PERFORMER "Golia Leandre Filiano"
INDEX 01 22:19:62
TRACK 04 AUDIO
TITLE "Dream Commandos"
PERFORMER "Golia Leandre Filiano"
INDEX 01 28:46:62
TRACK 05 AUDIO
TITLE "Above the Age of Reason"
PERFORMER "Golia Leandre Filiano"
INDEX 01 32:48:62
TRACK 06 AUDIO
TITLE "Empty Places Where We Walk"
PERFORMER "Golia Leandre Filiano"
INDEX 01 41:34:62
TRACK 07 AUDIO
TITLE "Each One Starts Another"
PERFORMER "Golia Leandre Filiano"
INDEX 01 51:36:62
TRACK 08 AUDIO
TITLE "In keeping with the situation..."
PERFORMER "Golia Leandre Filiano"
INDEX 01 60:31:62
 
.accurip
[CUETools log; Date: 11/03/13 12:38:07; Version: 2.1.4]
[CTDB TOCID: z7v7z1Xf_IeM.tK6MmRrYTQ24g8-] disk not present in database.
[AccurateRip ID: 0016599e-009226bb-7d112108] found.
Track [ CRC | V2 ] Status
01 [4a660aa8|cebd404b] (0+0/1) No match
02 [2a129475|39130cc9] (0+0/1) No match
03 [2763c7dc|6033f993] (0+0/1) No match
04 [1fc524fb|755b4707] (0+0/1) No match
05 [0df89d94|59b0574d] (0+0/1) No match
06 [c55c5518|04650b16] (0+0/1) No match
07 [78a758a5|20d26c13] (0+0/1) No match
08 [85009881|76fc2437] (0+0/1) No match
Offsetted by 66:
01 [c191fc3f] (1/1) Accurately ripped
02 [f9c85449] (1/1) Accurately ripped
03 [f2be80fc] (1/1) Accurately ripped
04 [4f55e526] (1/1) Accurately ripped
05 [7b1796b4] (1/1) Accurately ripped
06 [75fa5d92] (1/1) Accurately ripped
07 [650f695b] (1/1) Accurately ripped
08 [70c1aef7] (1/1) Accurately ripped
Track Peak [ CRC32 ] [W/O NULL] [ LOG ]
-- 91.5 [0D9532CB] [5444FEC2] CRC32
01 90.7 [10C5198C] [4008434C]
02 90.4 [7DABABEB] [6B78DD21]
03 82.8 [97C3A656] [93A0FBD7]
04 77.2 [EDEF9605] [7A3E3658]
05 91.5 [B5EEB1E7] [3A26B687]
06 38.1 [4578F0C0] [C4E9F076]
07 90.3 [0F9B850A] [904DF409]
08 90.9 [2FAF69C8] [A59F8E27]

http://www.discogs.com/Vinny-Golia-Jo%C3%ABlle-L%C3%A9andre-Ken-Filiano-Haunting-.../release/3064465
другие релизы
По всем вопросам пишите личное сообщение пользователю M0p94ok.
07:50
186
Нет комментариев. Ваш будет первым!