Вы используете незарегистрированную версию компонента "Вкладки"!

Поиск

(Avant-garde Jazz) [CD] Scott Fields Ensemble (Scott Roller, Sebastian Gramss, Joao Lobo) - Music For The Radio Program This American Life - 2008, FLAC (image+.cue), lossless

(Avant-garde Jazz) [CD] Scott Fields Ensemble (Scott Roller, Sebastian Gramss, Joao Lobo) - Music For The Radio Program This American Life - 2008, FLAC (image+.cue), lossless
Треклист:
Scott Fields Ensemble / Music For The Radio Program This American Life
Жанр: Avant-garde Jazz
Носитель: CD
Страна-производитель диска (релиза): Germany
Год издания: 2008
Издатель (лейбл): NEOS JAZZ
Номер по каталогу: NEOS 40806
Аудиокодек: FLAC (*.flac)
Тип рипа: image+.cue
Битрейт аудио: lossless
Продолжительность: 75:15
Источник (релизер): cd
Наличие сканов в содержимом раздачи: нет
Треклист:
1 Flatfooted Flatbroke 16:18
2 Can He Make A W? 15:36
3 Strange People Live Next Door 13:31
4 That And A Dime... 16:41
5 Dogs We Thought We Knew 12:58
 
Лог создания рипа
Exact Audio Copy V1.0 beta 3 from 29. August 2011
EAC extraction logfile from 29. December 2014, 11:34
Scott Fields Ensemble / Music For The Radio Program This American Life
Used drive : Optiarc DVD RW AD-7170A Adapter: 0 ID: 0
Read mode : Secure
Utilize accurate stream : Yes
Defeat audio cache : Yes
Make use of C2 pointers : No
Read offset correction : 48
Overread into Lead-In and Lead-Out : No
Fill up missing offset samples with silence : Yes
Delete leading and trailing silent blocks : No
Null samples used in CRC calculations : Yes
Used interface : Native Win32 interface for Win NT & 2000
Used output format : User Defined Encoder
Selected bitrate : 320 kBit/s
Quality : High
Add ID3 tag : No
Command line compressor : C:\Program Files\Exact Audio Copy\Flac\flac.exe
Additional command line options : -V -8 -T "Date=%year%" -T "Genre=%genre%" %source%
TOC of the extracted CD
Track | Start | Length | Start sector | End sector
---------------------------------------------------------
1 | 0:00.00 | 16:20.60 | 0 | 73559
2 | 16:20.60 | 15:38.21 | 73560 | 143930
3 | 31:59.06 | 13:33.70 | 143931 | 204975
4 | 45:33.01 | 16:43.56 | 204976 | 280256
5 | 62:16.57 | 12:58.46 | 280257 | 338652
Range status and errors
Selected range
Filename C:\Documents and Settings\All Users\Scott Fields Ensemble - Music For The Radio Program This American Life.wav
Peak level 100.0 %
Extraction speed 2.4 X
Range quality 100.0 %
Test CRC 87310BD7
Copy CRC 87310BD7
Copy OK
No errors occurred
End of status report
==== Log checksum F3B4A2D3C390C98A02329A172BEF9C86D4BA57B1FFA53D9ACA61E7C89504FD38 ====
 
Содержание индексной карты (.CUE)
REM GENRE Jazz
REM DATE 2008
REM DISCID 4811A305
REM COMMENT "ExactAudioCopy v1.0b3"
PERFORMER "Scott Fields Ensemble"
TITLE "Music For The Radio Program This American Life"
FILE "Scott Fields Ensemble - Music For The Radio Program This American Life.flac" WAVE
TRACK 01 AUDIO
TITLE "Flatfooted Flatbroke"
PERFORMER "Scott Fields Ensemble"
ISRC DEGF70840601
INDEX 01 00:00:00
TRACK 02 AUDIO
TITLE "Can He Make A W"
PERFORMER "Scott Fields Ensemble"
ISRC DEGF70840602
INDEX 00 16:18:60
INDEX 01 16:20:60
TRACK 03 AUDIO
TITLE "Strange People Live Next Door"
PERFORMER "Scott Fields Ensemble"
ISRC DEGF70840603
INDEX 00 31:57:06
INDEX 01 31:59:06
TRACK 04 AUDIO
TITLE "That And A Dime"
PERFORMER "Scott Fields Ensemble"
ISRC DEGF70840604
INDEX 00 45:31:01
INDEX 01 45:33:01
TRACK 05 AUDIO
TITLE "Dogs We Thought We Knew"
PERFORMER "Scott Fields Ensemble"
ISRC DEGF70840605
INDEX 00 62:14:57
INDEX 01 62:16:57
Доп. информация: Recorded 20/ 21 January 2008, mixed 12 February 2008, at Topaz Studios, Cologne, Germany
 
Об альбоме (сборнике)
"The bassist here, Sebastian Gramss, featured on Das Mollsche Gesetz¹s Catalogue Of Improvisation, which I reviewed in The Wire 303. DMG¹s improvisations follow two rules: no piece should last more than 60 seconds, and each should be followed by a pause of the same duration as the music. In contrast, Scott Fields allows the musicians to stretch out, and all five tracks last around a quarter-hour. With a line-up like this (electric guitar, cello, bass, drums), the label ³chamber jazz² always hovers menacingly, but it is not particularly helpful as shorthand. Fields and co produce thoughtful music, but not unduly cerebral, dry or cautious < the improvisations are adventurous, constantly engaging and often passionate. The last Fields album I heard, Dénouement (Clean Feed) took more than a decade to get a proper release. Fortunately, this very impressive session has taken only a year to escape. Incidentally, This American Life is a Chicago Public Radio show that its producers describe as ³movies for the radio,² and if this CD is anything to go by, it must be addictive listening."-Barry Witherden, The Wire
 
Состав
Cello – Scott Roller
Contrabass – Sebastian Gramss
Electric Guitar, Composed By, Executive Producer – Scott Fields
Percussion – João Lobo
По всем вопросам пишите личное сообщение пользователю M0p94ok.
07:49
169
Нет комментариев. Ваш будет первым!