Вы используете незарегистрированную версию компонента "Вкладки"!

Поиск

(Experimental, Free Improvisation, GROB Records) [CD] Konk Pack (Tim Hodgkinson, Roger Turner, Thomas Lehn) - Collection, 2CD ("Warp Out", 2001 & "The Black Hills", 2010) - FLAC (tracks+.cue), lossless

(Experimental, Free Improvisation, GROB Records) [CD] Konk Pack (Tim Hodgkinson, Roger Turner, Thomas Lehn) - Collection, 2CD ("Warp Out", 2001 & "The Black Hills", 2010) - FLAC (tracks+.cue), lossless
Треклист:
konk pack. collection. 2cd.

жанр. free improvisation. experimental.
label. Grob (founded by Hans Grob). Germany.
аудио. FLAC (*flac). tracks+cue. lossless.
наличие сканов в раздаче. copy.
источник. whatcd.
time 01.57.55.
 
Нажми тут, любитель джаза
 
2001 / GROB.323 / "Warp Out" / user. trotterjelly

01. Orwell's Knee
02. Klarnt
03. White Jem
04. Chibol
05. Sach
_______________
time 00.51.14.
 
log
Exact Audio Copy V1.1 from 23. June 2015
EAC extraction logfile from 17. April 2016, 16:53
Konk Pack / Warp Out
Used drive : HL-DT-STDVDRAM GE24NU40 Adapter: 1 ID: 1
Read mode : Secure
Utilize accurate stream : Yes
Defeat audio cache : Yes
Make use of C2 pointers : No
Read offset correction : 6
Overread into Lead-In and Lead-Out : No
Fill up missing offset samples with silence : Yes
Delete leading and trailing silent blocks : No
Null samples used in CRC calculations : Yes
Used interface : Native Win32 interface for Win NT & 2000
Gap handling : Appended to previous track
Used output format : User Defined Encoder
Selected bitrate : 768 kBit/s
Quality : High
Add ID3 tag : No
Command line compressor : C:\Program Files (x86)\Exact Audio Copy\FLAC\FLAC.EXE
Additional command line options : -8 -e -V -T "ARTIST=%artist%" -T "TITLE=%title%" -T "ALBUM=%albumtitle%" -T "DATE=%year%" -T "TRACKNUMBER=%tracknr%" -T "GENRE=%genre%" -T "PERFORMER=%albuminterpret%" -T "COMPOSER=%composer%" %haslyrics%--tag-from-file=LYRICS="%lyricsfile%"%haslyrics% -T "ALBUMARTIST=%albumartist%" -T "DISCNUMBER=%cdnumber%" -T "TOTALDISCS=%totalcds%" -T "TOTALTRACKS=%numtracks%" -T "COMMENT=%comment%" %source% -o %dest%
TOC of the extracted CD
Track | Start | Length | Start sector | End sector
---------------------------------------------------------
1 | 0:00.00 | 15:40.47 | 0 | 70546
2 | 15:40.47 | 4:06.66 | 70547 | 89062
3 | 19:47.38 | 16:38.00 | 89063 | 163912
4 | 36:25.38 | 2:40.17 | 163913 | 175929
5 | 39:05.55 | 12:08.09 | 175930 | 230538
Track 1
Filename C:\EAC\Konk Pack - Warp Out - 2001 [FLAC] {GROB.323}\01 - Orwell's Knee.wav
Pre-gap length 0:00:02.00
Peak level 96.5 %
Extraction speed 1.3 X
Track quality 100.0 %
Test CRC 9BDB4A0B
Copy CRC 9BDB4A0B
Accurately ripped (confidence 1) [5138AD7C] (AR v1)
Copy OK
Track 2
Filename C:\EAC\Konk Pack - Warp Out - 2001 [FLAC] {GROB.323}\02 - Klarnt.wav
Pre-gap length 0:00:04.74
Peak level 96.5 %
Extraction speed 1.4 X
Track quality 100.0 %
Test CRC 80EFB582
Copy CRC 80EFB582
Accurately ripped (confidence 1) [43B8A1AC] (AR v1)
Copy OK
Track 3
Filename C:\EAC\Konk Pack - Warp Out - 2001 [FLAC] {GROB.323}\03 - White Jem.wav
Pre-gap length 0:00:06.74
Peak level 96.5 %
Extraction speed 1.8 X
Track quality 99.9 %
Test CRC 80B76DD9
Copy CRC 80B76DD9
Accurately ripped (confidence 1) [465C0E7E] (AR v1)
Copy OK
Track 4
Filename C:\EAC\Konk Pack - Warp Out - 2001 [FLAC] {GROB.323}\04 - Chibol.wav
Pre-gap length 0:00:06.74
Peak level 77.6 %
Extraction speed 1.7 X
Track quality 100.0 %
Test CRC A2689065
Copy CRC A2689065
Accurately ripped (confidence 1) [0FEFB18C] (AR v1)
Copy OK
Track 5
Filename C:\EAC\Konk Pack - Warp Out - 2001 [FLAC] {GROB.323}\05 - Sach.wav
Pre-gap length 0:00:06.74
Peak level 96.5 %
Extraction speed 2.1 X
Track quality 100.0 %
Test CRC 2A8BEFB6
Copy CRC 2A8BEFB6
Accurately ripped (confidence 1) [856A9EF1] (AR v1)
Copy OK
All tracks accurately ripped
No errors occurred
End of status report
---- CUETools DB Plugin V2.1.6
[CTDB TOCID: A8olv_Gp3cGcRexaOZ96XRWiV5E-] disk not present in database
Submit result: A8olv_Gp3cGcRexaOZ96XRWiV5E- has been uploaded
==== Log checksum E7C340B9AA802764831E82C20AB3ED964D60857965B579C155E442DD4AE33E50 ====
 
cue
REM GENRE "Free Improvisation"
REM DATE 2001
REM DISCID 460C0105
REM COMMENT "ExactAudioCopy v1.1"
PERFORMER "Konk Pack"
TITLE "Warp Out"
FILE "01. Orwell's Knee.wav" WAVE
TRACK 01 AUDIO
TITLE "Orwell's Knee"
PERFORMER "Konk Pack"
INDEX 01 00:00:00
TRACK 02 AUDIO
TITLE "Klarnt"
PERFORMER "Konk Pack"
INDEX 00 15:35:48
FILE "02. Klarnt.wav" WAVE
INDEX 01 00:00:00
TRACK 03 AUDIO
TITLE "White Jem"
PERFORMER "Konk Pack"
INDEX 00 03:59:67
FILE "03. White Jem.wav" WAVE
INDEX 01 00:00:00
TRACK 04 AUDIO
TITLE "Chibol"
PERFORMER "Konk Pack"
INDEX 00 16:31:01
FILE "04. Chibol.wav" WAVE
INDEX 01 00:00:00
TRACK 05 AUDIO
TITLE "Sach"
PERFORMER "Konk Pack"
INDEX 00 02:33:18
FILE "05. Sach.wav" WAVE
INDEX 01 00:00:00
 
2010 / GROB 962 / "The Black Hills" / user. Bruitiste

01. The Welcome
02. Saturn Bar
03. The Grave
04. The Breakfast
05. Roof Party
06. The Trees
07. Gin Run
_______________
time 01.06.41.
 
log

Exact Audio Copy V1.0 beta 3 from 29. August 2011
EAC extraction logfile from 17. December 2013, 9:41
Konk Pack / The Black Hills
Used drive : LITE-ON DVD SOHD-16P9S Adapter: 0 ID: 0
Read mode : Secure
Utilize accurate stream : Yes
Defeat audio cache : Yes
Make use of C2 pointers : No
Read offset correction : 6
Overread into Lead-In and Lead-Out : No
Fill up missing offset samples with silence : Yes
Delete leading and trailing silent blocks : No
Null samples used in CRC calculations : Yes
Used interface : Native Win32 interface for Win NT & 2000
Gap handling : Appended to previous track
Used output format : User Defined Encoder
Selected bitrate : 1024 kBit/s
Quality : High
Add ID3 tag : No
Command line compressor : C:\EAC\Exact Audio Copy\FLAC\flac.exe
Additional command line options : -8 -V -T "ARTIST=%artist%" -T "TITLE=%title%" -T "ALBUM=%albumtitle%" -T "DATE=%year%" -T "TRACKNUMBER=%tracknr%" -T "GENRE=%genre%" -T "PERFORMER=%albuminterpret%" -T "COMPOSER=%composer%" %haslyrics%--tag-from-file=LYRICS="%lyricsfile%"%haslyrics% -T "ALBUMARTIST=%albumartist%" -T "DISCNUMBER=%cdnumber%" -T "TOTALDISCS=%totalcds%" -T "TOTALTRACKS=%numtracks%" -T "COMMENT=%comment%" %source% -o %dest%
TOC of the extracted CD
Track | Start | Length | Start sector | End sector
---------------------------------------------------------
1 | 0:00.00 | 7:16.01 | 0 | 32700
2 | 7:16.01 | 9:43.43 | 32701 | 76468
3 | 16:59.44 | 7:21.30 | 76469 | 109573
4 | 24:20.74 | 5:09.20 | 109574 | 132768
5 | 29:30.19 | 5:58.66 | 132769 | 159684
6 | 35:29.10 | 24:54.00 | 159685 | 271734
7 | 60:23.10 | 6:17.38 | 271735 | 300047
Track 1
Filename C:\EAC-rips\Konk Pack - The Black Hills\01 - The Welcome.wav
Pre-gap length 0:00:02.00
Peak level 90.2 %
Extraction speed 6.0 X
Track quality 100.0 %
Test CRC 2BFF9D17
Copy CRC 2BFF9D17
Track not present in AccurateRip database
Copy OK
Track 2
Filename C:\EAC-rips\Konk Pack - The Black Hills\02 - Saturn Bar.wav
Pre-gap length 0:00:01.00
Peak level 71.7 %
Extraction speed 7.2 X
Track quality 100.0 %
Test CRC 6D271D80
Copy CRC 6D271D80
Track not present in AccurateRip database
Copy OK
Track 3
Filename C:\EAC-rips\Konk Pack - The Black Hills\03 - The Grave.wav
Pre-gap length 0:00:02.00
Peak level 73.8 %
Extraction speed 7.9 X
Track quality 100.0 %
Test CRC 4F09DF99
Copy CRC 4F09DF99
Track not present in AccurateRip database
Copy OK
Track 4
Filename C:\EAC-rips\Konk Pack - The Black Hills\04 - The Breakfast.wav
Pre-gap length 0:00:01.40
Peak level 70.8 %
Extraction speed 8.3 X
Track quality 100.0 %
Test CRC AB5308D0
Copy CRC AB5308D0
Track not present in AccurateRip database
Copy OK
Track 5
Filename C:\EAC-rips\Konk Pack - The Black Hills\05 - Roof Party.wav
Peak level 71.7 %
Extraction speed 8.0 X
Track quality 99.9 %
Test CRC 9D0721A5
Copy CRC 9D0721A5
Track not present in AccurateRip database
Copy OK
Track 6
Filename C:\EAC-rips\Konk Pack - The Black Hills\06 - The Trees.wav
Pre-gap length 0:00:04.98
Peak level 70.8 %
Extraction speed 10.1 X
Track quality 99.9 %
Test CRC 50AF4DA9
Copy CRC 50AF4DA9
Track not present in AccurateRip database
Copy OK
Track 7
Filename C:\EAC-rips\Konk Pack - The Black Hills\07 - Gin Run.wav
Pre-gap length 0:00:02.00
Peak level 82.9 %
Extraction speed 9.9 X
Track quality 99.9 %
Test CRC B3EEADF4
Copy CRC B3EEADF4
Track not present in AccurateRip database
Copy OK
None of the tracks are present in the AccurateRip database
No errors occurred
End of status report
---- CUETools DB Plugin V2.1.3
[CTDB TOCID: Zu66u0onmjbuoGHjJWRwZl3TIsY-] disk not present in database, Submit result: Zu66u0onmjbuoGHjJWRwZl3TIsY- has been uploaded
==== Log checksum 92271B86096195A3BDB821EF6FCB1665E43F13418FECE10195817B02EBA388AD ====
 
cue
REM GENRE "Free Improvisation"
REM DATE 2010
REM DISCID 4A0FA007
REM COMMENT "ExactAudioCopy v1.0b3"
PERFORMER "Konk Pack"
TITLE "The Black Hills"
FILE "01. The Welcome.wav" WAVE
TRACK 01 AUDIO
TITLE "The Welcome"
PERFORMER "Konk Pack"
INDEX 01 00:00:00
TRACK 02 AUDIO
TITLE "Saturn Bar"
PERFORMER "Konk Pack"
INDEX 00 07:15:01
FILE "02. Saturn Bar.wav" WAVE
INDEX 01 00:00:00
TRACK 03 AUDIO
TITLE "The Grave"
PERFORMER "Konk Pack"
INDEX 00 09:41:43
FILE "03. The Grave.wav" WAVE
INDEX 01 00:00:00
TRACK 04 AUDIO
TITLE "The Breakfast"
PERFORMER "Konk Pack"
INDEX 00 07:20:00
FILE "04. The Breakfast.wav" WAVE
INDEX 01 00:00:00
FILE "05. Roof Party.wav" WAVE
TRACK 05 AUDIO
TITLE "Roof Party"
PERFORMER "Konk Pack"
INDEX 01 00:00:00
TRACK 06 AUDIO
TITLE "The Trees"
PERFORMER "Konk Pack"
INDEX 00 05:53:67
FILE "06. The Trees.wav" WAVE
INDEX 01 00:00:00
TRACK 07 AUDIO
TITLE "Gin Run"
PERFORMER "Konk Pack"
INDEX 00 24:52:00
FILE "07. Gin Run.wav" WAVE
INDEX 01 00:00:00
По всем вопросам пишите личное сообщение пользователю M0p94ok.
07:51
195
Нет комментариев. Ваш будет первым!