Вы используете незарегистрированную версию компонента "Вкладки"!

Поиск

(Free Jazz) Tribute To Albert Ayler - Live At The Dynamo - 2009, FLAC (tracks+.cue) lossless

Треклист:
Tribute To Albert Ayler - Live At The Dynamo
Жанр: Free Jazz
Страна-производитель диска: France
Год издания диска: 2009
Издатель (лейбл): Disques Futura et Marge
Номер по каталогу: MARGE 45
Страна: France
Аудио кодек: FLAC (*.flac)
Тип рипа: tracks+.cue
Битрейт аудио: lossless
Продолжительность: 1:14:13
Источник (релизер): собственный рип с оригинального диска.
Наличие сканов в содержимом раздачи: да
Треклист:
1. Music Is The Healing Force of The Universe 6:31
2. Muntu 15:19
3. Obama Victory Shoutout & Truth Is Marching In 13:50
4. DC & Vibrations 16:51
5. Prophet John 15:05
6. Universal Indians 6:40
 
Лог создания рипа
Exact Audio Copy V0.99 prebeta 5 from 4. May 2009
EAC extraction logfile from 31. December 2010, 17:08
Tribute To Albert Ayler / Live At The Dynamo
Used drive : TSSTcorpCDDVDW SH-S222A Adapter: 1 ID: 0
Read mode : Secure
Utilize accurate stream : Yes
Defeat audio cache : Yes
Make use of C2 pointers : No
Read offset correction : 6
Overread into Lead-In and Lead-Out : No
Fill up missing offset samples with silence : Yes
Delete leading and trailing silent blocks : No
Null samples used in CRC calculations : Yes
Used interface : Installed external ASPI interface
Gap handling : Appended to previous track
Used output format : User Defined Encoder
Selected bitrate : 768 kBit/s
Quality : High
Add ID3 tag : No
Command line compressor : C:\Tool\Compress\FLAC\flac.exe
Additional command line options : -V -8 -T "ARTIST=%a" -T "TITLE=%t" -T "ALBUM=%g" -T "TRACKNUMBER=%n" -T "GENRE=%m" %s
TOC of the extracted CD
Track | Start | Length | Start sector | End sector
---------------------------------------------------------
1 | 0:00.00 | 6:30.69 | 0 | 29318
2 | 6:30.69 | 15:18.39 | 29319 | 98207
3 | 21:49.33 | 13:49.49 | 98208 | 160431
4 | 35:39.07 | 16:51.29 | 160432 | 236285
5 | 52:30.36 | 15:05.23 | 236286 | 304183
6 | 67:35.59 | 6:40.12 | 304184 | 334195
Track 1
Filename C:\! RUTRACKER\ru up\Tribute to Albert Ayler - Live at The Dynamo\01 - Music Is The Healing Force Of The Universe.wav
Pre-gap length 0:00:02.00
Peak level 97.6 %
Track quality 100.0 %
Test CRC 8D051A80
Copy CRC 8D051A80
Accurately ripped (confidence 1) [49B59CCF]
Copy OK
Track 2
Filename C:\! RUTRACKER\ru up\Tribute to Albert Ayler - Live at The Dynamo\02 - Muntu.wav
Peak level 97.8 %
Track quality 100.0 %
Test CRC 39427745
Copy CRC 39427745
Accurately ripped (confidence 1) [B688AA70]
Copy OK
Track 3
Filename C:\! RUTRACKER\ru up\Tribute to Albert Ayler - Live at The Dynamo\03 - Obama Victory Shoutout & Truth Is Marching In.wav
Peak level 97.7 %
Track quality 100.0 %
Test CRC 98B2E7CC
Copy CRC 98B2E7CC
Accurately ripped (confidence 1) [FB1CA2D0]
Copy OK
Track 4
Filename C:\! RUTRACKER\ru up\Tribute to Albert Ayler - Live at The Dynamo\04 - DC & Vibrations.wav
Peak level 98.0 %
Track quality 100.0 %
Test CRC B10AAF5C
Copy CRC B10AAF5C
Accurately ripped (confidence 1) [1552B44B]
Copy OK
Track 5
Filename C:\! RUTRACKER\ru up\Tribute to Albert Ayler - Live at The Dynamo\05 - Prophet John.wav
Peak level 97.8 %
Track quality 100.0 %
Test CRC A5C31AE7
Copy CRC A5C31AE7
Accurately ripped (confidence 1) [FE6CB4FF]
Copy OK
Track 6
Filename C:\! RUTRACKER\ru up\Tribute to Albert Ayler - Live at The Dynamo\06 - Universal Indians.wav
Peak level 97.8 %
Track quality 99.9 %
Test CRC 7ECA0624
Copy CRC 7ECA0624
Accurately ripped (confidence 1) [E471BB0F]
Copy OK
All tracks accurately ripped
No errors occurred
End of status report
 
Содержание индексной карты (.CUE)
REM GENRE "Free Jazz"
REM DATE 2008
REM DISCID 39116706
REM COMMENT "ExactAudioCopy v0.99pb5"
PERFORMER "Tribute To Albert Ayler"
TITLE "Live At The Dynamo"
FILE "01 - Music Is The Healing Force Of The Universe.wav" WAVE
TRACK 01 AUDIO
TITLE "Music Is The Healing Force Of The Universe"
PERFORMER "Tribute To Albert Ayler"
INDEX 01 00:00:00
FILE "02 - Muntu.wav" WAVE
TRACK 02 AUDIO
TITLE "Muntu"
PERFORMER "Tribute To Albert Ayler"
INDEX 01 00:00:00
FILE "03 - Obama Victory Shoutout & Truth Is Marching In.wav" WAVE
TRACK 03 AUDIO
TITLE "Obama Victory Shoutout & Truth Is Marching In"
PERFORMER "Tribute To Albert Ayler"
INDEX 01 00:00:00
FILE "04 - DC & Vibrations.wav" WAVE
TRACK 04 AUDIO
TITLE "DC & Vibrations"
PERFORMER "Tribute To Albert Ayler"
INDEX 01 00:00:00
FILE "05 - Prophet John.wav" WAVE
TRACK 05 AUDIO
TITLE "Prophet John"
PERFORMER "Tribute To Albert Ayler"
INDEX 01 00:00:00
FILE "06 - Universal Indians.wav" WAVE
TRACK 06 AUDIO
TITLE "Universal Indians"
PERFORMER "Tribute To Albert Ayler"
INDEX 01 00:00:00
Доп. информация:
Recorded the November 21st 2008 at the Dynamo, Pantin, France
 
Об исполнителе (группе)
Albert Ayler was one of the truly great musicians of the early free jazz period, mixing ferocious heart-wrenching wailing with sensitivity and spirituality, all built over a backbone of traditional music, gospel and military marches. His life and his music did not differ much : all intensity, restless searching, looking for true musical authenticity, travelling, practicing, playing, dying before he reached the age of 35, probably by suicide.
 
Об альбоме (сборнике)
If you like free jazz, which I assume, don't miss this album. It brings a wonderful overview of fourty years of musical history by four masters, who as a tight unit manage to demonstrate the value of Ayler's music, but even stronger, how beautiful, how uplifting, how spiritual and how emotionally moving great music can be. They are not going back in time, quite to the contrary, they bring Ayler's music back to life, but then in today's context, with all the skills and performing experience Ayler never got the chance to achieve. And it must be said: all four musicians are stellar. They understand the power of music. Deeply.Warmly. Truly.
 
Состав
Joe McPhee - tenor sax, pocket trumpet, voice
Roy Campbell - trumpet, pocket trumpet, bamboo flute, recorder, voice
William Parker - bass, voice
Warren Smith - drums, percussion, voice
Any questions - support@pro-jazz.com.
Есть вопросы - support@pro-jazz.com
07:03
202
Нет комментариев. Ваш будет первым!