Вы используете незарегистрированную версию компонента "Вкладки"!

Поиск

(Free Jazz) Fred Anderson - Black Horn Long Gone - 2009, FLAC (tracks+.cue) lossless

Треклист:
Fred Anderson - Black Horn Long Gone
Жанр: Free Jazz
Страна-производитель диска: USA
Год издания диска: 2009
Издатель (лейбл): Southport Records
Номер по каталогу: S-SSD 0128
Страна: USA
Аудио кодек: FLAC (*.flac)
Тип рипа: tracks+.cue
Битрейт аудио: lossless
Продолжительность: 1:01:11
Источник (релизер): собственный рип с оригинального диска.
Наличие сканов в содержимом раздачи: да
Треклист:
01. Wandering
02. Our Theme
03. Saxoon
04. Three on Two
05. Bernice
06. The Strut Time
07. Malachi's Tune
08. Ode to Clifford Jordan
 
Лог создания рипа
Exact Audio Copy V0.99 prebeta 5 from 4. May 2009
EAC extraction logfile from 31. December 2010, 16:32
Fred Anderson / Black Horn Long Gone
Used drive : TSSTcorpCDDVDW SH-S222A Adapter: 1 ID: 0
Read mode : Secure
Utilize accurate stream : Yes
Defeat audio cache : Yes
Make use of C2 pointers : No
Read offset correction : 6
Overread into Lead-In and Lead-Out : No
Fill up missing offset samples with silence : Yes
Delete leading and trailing silent blocks : No
Null samples used in CRC calculations : Yes
Used interface : Installed external ASPI interface
Gap handling : Appended to previous track
Used output format : User Defined Encoder
Selected bitrate : 768 kBit/s
Quality : High
Add ID3 tag : No
Command line compressor : C:\Tool\Compress\FLAC\flac.exe
Additional command line options : -V -8 -T "ARTIST=%a" -T "TITLE=%t" -T "ALBUM=%g" -T "TRACKNUMBER=%n" -T "GENRE=%m" %s
TOC of the extracted CD
Track | Start | Length | Start sector | End sector
---------------------------------------------------------
1 | 0:00.00 | 5:58.64 | 0 | 26913
2 | 5:58.64 | 6:27.15 | 26914 | 55953
3 | 12:26.04 | 6:41.20 | 55954 | 86048
4 | 19:07.24 | 10:00.53 | 86049 | 131101
5 | 29:08.02 | 9:26.13 | 131102 | 173564
6 | 38:34.15 | 8:30.50 | 173565 | 211864
7 | 47:04.65 | 6:06.28 | 211865 | 239342
8 | 53:11.18 | 8:03.23 | 239343 | 275590
Track 1
Filename C:\! RUTRACKER\ru up\Fred Anderson - Black Horn Long Gone\01 - Wandering.wav
Pre-gap length 0:00:02.00
Peak level 87.7 %
Track quality 100.0 %
Test CRC 1D7D1894
Copy CRC 1D7D1894
Track not present in AccurateRip database
Copy OK
Track 2
Filename C:\! RUTRACKER\ru up\Fred Anderson - Black Horn Long Gone\02 - Our Theme.wav
Peak level 87.7 %
Track quality 99.9 %
Test CRC 7FC73A52
Copy CRC 7FC73A52
Track not present in AccurateRip database
Copy OK
Track 3
Filename C:\! RUTRACKER\ru up\Fred Anderson - Black Horn Long Gone\03 - Saxoon.wav
Peak level 87.7 %
Track quality 100.0 %
Test CRC A43A46D3
Copy CRC A43A46D3
Track not present in AccurateRip database
Copy OK
Track 4
Filename C:\! RUTRACKER\ru up\Fred Anderson - Black Horn Long Gone\04 - Three on Two.wav
Peak level 87.7 %
Track quality 99.9 %
Test CRC 1C802E70
Copy CRC 1C802E70
Track not present in AccurateRip database
Copy OK
Track 5
Filename C:\! RUTRACKER\ru up\Fred Anderson - Black Horn Long Gone\05 - Bernice.wav
Peak level 84.9 %
Track quality 99.9 %
Test CRC 7E63F70C
Copy CRC 7E63F70C
Track not present in AccurateRip database
Copy OK
Track 6
Filename C:\! RUTRACKER\ru up\Fred Anderson - Black Horn Long Gone\06 - The Strut Time.wav
Peak level 86.4 %
Track quality 100.0 %
Test CRC 6DD4B4F7
Copy CRC 6DD4B4F7
Track not present in AccurateRip database
Copy OK
Track 7
Filename C:\! RUTRACKER\ru up\Fred Anderson - Black Horn Long Gone\07 - Malachi's Tune.wav
Peak level 87.7 %
Track quality 100.0 %
Test CRC E426FDF0
Copy CRC E426FDF0
Track not present in AccurateRip database
Copy OK
Track 8
Filename C:\! RUTRACKER\ru up\Fred Anderson - Black Horn Long Gone\08 - Ode to Clifford Jordan.wav
Peak level 84.4 %
Track quality 100.0 %
Test CRC E707B632
Copy CRC E707B632
Track not present in AccurateRip database
Copy OK
None of the tracks are present in the AccurateRip database
No errors occurred
End of status report
 
Содержание индексной карты (.CUE)
REM GENRE "Free Jazz"
REM DATE 1993
REM DISCID 680E5A08
REM COMMENT "ExactAudioCopy v0.99pb5"
PERFORMER "Fred Anderson"
TITLE "Black Horn Long Gone"
FILE "01 - Wandering.wav" WAVE
TRACK 01 AUDIO
TITLE "Wandering"
PERFORMER "Fred Anderson"
INDEX 01 00:00:00
FILE "02 - Our Theme.wav" WAVE
TRACK 02 AUDIO
TITLE "Our Theme"
PERFORMER "Fred Anderson"
INDEX 01 00:00:00
FILE "03 - Saxoon.wav" WAVE
TRACK 03 AUDIO
TITLE "Saxoon"
PERFORMER "Fred Anderson"
INDEX 01 00:00:00
FILE "04 - Three on Two.wav" WAVE
TRACK 04 AUDIO
TITLE "Three on Two"
PERFORMER "Fred Anderson"
INDEX 01 00:00:00
FILE "05 - Bernice.wav" WAVE
TRACK 05 AUDIO
TITLE "Bernice"
PERFORMER "Fred Anderson"
INDEX 01 00:00:00
FILE "06 - The Strut Time.wav" WAVE
TRACK 06 AUDIO
TITLE "The Strut Time"
PERFORMER "Fred Anderson"
INDEX 01 00:00:00
FILE "07 - Malachi's Tune.wav" WAVE
TRACK 07 AUDIO
TITLE "Malachi's Tune"
PERFORMER "Fred Anderson"
INDEX 01 00:00:00
FILE "08 - Ode to Clifford Jordan.wav" WAVE
TRACK 08 AUDIO
TITLE "Ode to Clifford Jordan"
PERFORMER "Fred Anderson"
INDEX 01 00:00:00
Доп. информация:
Recorded at Sparrow Sound Design Recording Studio, Chicago, ILL. - January 1993
 
Об альбоме (сборнике)
Fred Anderson is one of today's most powerful and singular saxophonists. Recorded in 1993, this trio (with bassist Malachi Favors and drummer Ajaramu—aka AJ Shelton—who have both since passed away) flies blissfully to new heights for piano-less sax trios. To call Anderson a member of the free jazz movement produces an incomplete picture. His technical facility and penchant for swinging is more influenced by Coleman Hawkins, Lester Young and Charlie Parker. Even an unaccompanied solo homage, "Ode To Clifford Jordan," links to swing while also delving into motific development and the total range of the tenor sax: clear low notes at the bottom register to improbably high altissimo notes perfectly in tune.
"Malachi's Tune" starts, appropriately enough, with Favors laying down a swinging groove with a beautifully spirit-lifting tinge of New Orleans second-line march. Anderson soars and swoops through the bouncy rhythm section, sometimes riffing à la the Basie band, other times with the speed and accuracy of John Coltrane or Johnny Griffin. Ajaramu's drumming is interesting, unique, perhaps closer to Ed Blackwell than Jimmy Cobb but he is his own man—a firestoker, sensitive accompanist and creative soloist. "Our Theme" begins with a drum solo that lures listeners in with its mysterious, spacious feel. When Favors enters the temperature increases and then Anderson's arrival turns the tune into a burning comet. Lest it be thought that this piece is out of control, Anderson leads the trio through a short, snappy coda that demonstrates the perfect musical chemistry and sympathy between the three musicians.
"Wandering," "Saxoon" and "Bernice" feature yearning, languid melodies and gorgeous writing where bass plays more of a second horn role. "Saxoon" might have the deepest solo from the leader, running the gamut from lyric to fierce, riffing to explosive, controlled swinging to super-fast flurries of notes. This trio produced a masterpiece over 15 years ago. For those interested in investigating Anderson's great playing and original compositions, Black Horn Long Gone is an outstanding place to start.
 
Состав
Fred Anderson - tenor saxophone
Malachi Favors Maghoustut - acoustic bass
Ajaramu (AJ Shelton) - drums
По всем вопросам пишите личное сообщение пользователю M0p94ok.
07:04
145
Нет комментариев. Ваш будет первым!