Вы используете незарегистрированную версию компонента "Вкладки"!

Поиск

(Free Jazz) Agusti Fernandez - Barry Guy - Ramon Lopez - Morning Glory - 2010, FLAC (tracks+.cue) lossless

Треклист:
Agusti Fernandez - Barry Guy - Ramon Lopez - Morning Glory
Жанр: Free Jazz
Страна-производитель диска: Switzerland
Год издания диска: 2010
Издатель (лейбл): Maya Recordings
Номер по каталогу: MCD 1001
Страна: Switzerland
Аудио кодек: FLAC (*.flac)
Тип рипа: tracks+.cue
Битрейт аудио: lossless
Продолжительность: 1:54:58
Источник (релизер): собственный рип с оригинального диска.
Наличие сканов в содержимом раздачи: да
Треклист:
Disc One Morning Glory
01. La Nina de la Calle Ibiza
02. Morning Glory
03. Unfinished Letter
04. Zahori
05. An Anonymous Soul
06. Perpetuum Mobile
07. Benito
08. The Magical Chorus
09. Glade
10. Mourning A Sudden Appearance
11. Belvedere
Disc Two Live in New York
01. Don Miguel
02. Odyssey
03. Can Ram
04. David M
05. Aurora
06. No Ni No
07. Rounds
 
Лог создания рипа
Disc 1
Exact Audio Copy V0.99 prebeta 5 from 4. May 2009
EAC extraction logfile from 31. December 2010, 15:32
Agusti Fernandez / Morning Glory CD1
Used drive : TSSTcorpCDDVDW SH-S222A Adapter: 1 ID: 0
Read mode : Secure
Utilize accurate stream : Yes
Defeat audio cache : Yes
Make use of C2 pointers : No
Read offset correction : 6
Overread into Lead-In and Lead-Out : No
Fill up missing offset samples with silence : Yes
Delete leading and trailing silent blocks : No
Null samples used in CRC calculations : Yes
Used interface : Installed external ASPI interface
Gap handling : Appended to previous track
Used output format : User Defined Encoder
Selected bitrate : 768 kBit/s
Quality : High
Add ID3 tag : No
Command line compressor : C:\Tool\Compress\FLAC\flac.exe
Additional command line options : -V -8 -T "ARTIST=%a" -T "TITLE=%t" -T "ALBUM=%g" -T "TRACKNUMBER=%n" -T "GENRE=%m" %s
TOC of the extracted CD
Track | Start | Length | Start sector | End sector
---------------------------------------------------------
1 | 0:00.00 | 6:31.39 | 0 | 29363
2 | 6:31.39 | 1:55.73 | 29364 | 38061
3 | 8:27.37 | 2:20.04 | 38062 | 48565
4 | 10:47.41 | 4:56.15 | 48566 | 70780
5 | 15:43.56 | 4:02.30 | 70781 | 88960
6 | 19:46.11 | 6:59.66 | 88961 | 120451
7 | 26:46.02 | 10:10.67 | 120452 | 166268
8 | 36:56.69 | 4:28.74 | 166269 | 186442
9 | 41:25.68 | 3:53.47 | 186443 | 203964
10 | 45:19.40 | 5:06.04 | 203965 | 226918
11 | 50:25.44 | 2:41.71 | 226919 | 239064
12 | 53:07.40 | 4:47.67 | 239065 | 260656
Track 1
Filename C:\! RUTRACKER\ru up\Agusti Fernandez - Morning Glory\CD1\01 - La nina de la calle Ibiza.wav
Pre-gap length 0:00:02.00
Peak level 88.6 %
Track quality 100.0 %
Test CRC 21455CC0
Copy CRC 21455CC0
Track not present in AccurateRip database
Copy OK
Track 2
Filename C:\! RUTRACKER\ru up\Agusti Fernandez - Morning Glory\CD1\02 - Morning Glory.wav
Peak level 94.4 %
Track quality 100.0 %
Test CRC 155B5D54
Copy CRC 155B5D54
Track not present in AccurateRip database
Copy OK
Track 3
Filename C:\! RUTRACKER\ru up\Agusti Fernandez - Morning Glory\CD1\03 - Unfinished Letter.wav
Pre-gap length 0:00:01.34
Peak level 82.9 %
Track quality 100.0 %
Test CRC 159FA48F
Copy CRC 159FA48F
Track not present in AccurateRip database
Copy OK
Track 4
Filename C:\! RUTRACKER\ru up\Agusti Fernandez - Morning Glory\CD1\04 - Zahori.wav
Pre-gap length 0:00:01.00
Peak level 94.4 %
Track quality 99.9 %
Test CRC E1BF14E1
Copy CRC E1BF14E1
Track not present in AccurateRip database
Copy OK
Track 5
Filename C:\! RUTRACKER\ru up\Agusti Fernandez - Morning Glory\CD1\05 - An Anonymous Soul.wav
Pre-gap length 0:00:00.66
Peak level 73.0 %
Track quality 99.9 %
Test CRC 23CE645D
Copy CRC 23CE645D
Track not present in AccurateRip database
Copy OK
Track 6
Filename C:\! RUTRACKER\ru up\Agusti Fernandez - Morning Glory\CD1\06 - Perpetuum Mobile.wav
Pre-gap length 0:00:01.63
Peak level 94.4 %
Track quality 100.0 %
Test CRC 97D269EB
Copy CRC 97D269EB
Track not present in AccurateRip database
Copy OK
Track 7
Filename C:\! RUTRACKER\ru up\Agusti Fernandez - Morning Glory\CD1\07 - Benito (Jordi Benito in absentia).wav
Peak level 94.4 %
Track quality 100.0 %
Test CRC 385F09A5
Copy CRC 385F09A5
Track not present in AccurateRip database
Copy OK
Track 8
Filename C:\! RUTRACKER\ru up\Agusti Fernandez - Morning Glory\CD1\08 - The Magical Chorus.wav
Pre-gap length 0:00:00.54
Peak level 90.7 %
Track quality 99.9 %
Test CRC F3F17F6F
Copy CRC F3F17F6F
Track not present in AccurateRip database
Copy OK
Track 9
Filename C:\! RUTRACKER\ru up\Agusti Fernandez - Morning Glory\CD1\09 - Glade.wav
Pre-gap length 0:00:01.00
Peak level 86.9 %
Track quality 100.0 %
Test CRC 07882EF3
Copy CRC 07882EF3
Track not present in AccurateRip database
Copy OK
Track 10
Filename C:\! RUTRACKER\ru up\Agusti Fernandez - Morning Glory\CD1\10 - Mourning.wav
Peak level 94.4 %
Track quality 100.0 %
Test CRC 079F0D2E
Copy CRC 079F0D2E
Track not present in AccurateRip database
Copy OK
Track 11
Filename C:\! RUTRACKER\ru up\Agusti Fernandez - Morning Glory\CD1\11 - A Sudden Appearance.wav
Peak level 69.9 %
Track quality 100.0 %
Test CRC E84330AF
Copy CRC E84330AF
Track not present in AccurateRip database
Copy OK
Track 12
Filename C:\! RUTRACKER\ru up\Agusti Fernandez - Morning Glory\CD1\12 - Belvedere.wav
Pre-gap length 0:00:01.00
Peak level 94.4 %
Track quality 99.9 %
Test CRC E2021FA1
Copy CRC E2021FA1
Track not present in AccurateRip database
Copy OK
None of the tracks are present in the AccurateRip database
No errors occurred
End of status report
Disc 2
Exact Audio Copy V0.99 prebeta 5 from 4. May 2009
EAC extraction logfile from 31. December 2010, 15:56
Agusti Fernandez / Live In New York CD2
Used drive : TSSTcorpCDDVDW SH-S222A Adapter: 1 ID: 0
Read mode : Secure
Utilize accurate stream : Yes
Defeat audio cache : Yes
Make use of C2 pointers : No
Read offset correction : 6
Overread into Lead-In and Lead-Out : No
Fill up missing offset samples with silence : Yes
Delete leading and trailing silent blocks : No
Null samples used in CRC calculations : Yes
Used interface : Installed external ASPI interface
Gap handling : Appended to previous track
Used output format : User Defined Encoder
Selected bitrate : 768 kBit/s
Quality : High
Add ID3 tag : No
Command line compressor : C:\Tool\Compress\FLAC\flac.exe
Additional command line options : -V -8 -T "ARTIST=%a" -T "TITLE=%t" -T "ALBUM=%g" -T "TRACKNUMBER=%n" -T "GENRE=%m" %s
TOC of the extracted CD
Track | Start | Length | Start sector | End sector
---------------------------------------------------------
1 | 0:00.00 | 11:12.21 | 0 | 50420
2 | 11:12.21 | 8:52.26 | 50421 | 90346
3 | 20:04.47 | 8:16.16 | 90347 | 127562
4 | 28:20.63 | 8:16.29 | 127563 | 164791
5 | 36:37.17 | 9:25.00 | 164792 | 207166
6 | 46:02.17 | 6:04.34 | 207167 | 234500
7 | 52:06.51 | 5:06.71 | 234501 | 257521
Track 1
Filename C:\! RUTRACKER\ru up\Agusti Fernandez - Morning Glory\CD2\01 - Don Miquel.wav
Pre-gap length 0:00:02.00
Peak level 94.4 %
Track quality 100.0 %
Test CRC C94045B8
Copy CRC C94045B8
Track not present in AccurateRip database
Copy OK
Track 2
Filename C:\! RUTRACKER\ru up\Agusti Fernandez - Morning Glory\CD2\02 - Odyssey.wav
Peak level 94.4 %
Track quality 100.0 %
Test CRC E236591C
Copy CRC E236591C
Track not present in AccurateRip database
Copy OK
Track 3
Filename C:\! RUTRACKER\ru up\Agusti Fernandez - Morning Glory\CD2\03 - Can Ram.wav
Peak level 94.4 %
Track quality 100.0 %
Test CRC CBDEF798
Copy CRC CBDEF798
Track not present in AccurateRip database
Copy OK
Track 4
Filename C:\! RUTRACKER\ru up\Agusti Fernandez - Morning Glory\CD2\04 - David M.wav
Peak level 94.4 %
Track quality 100.0 %
Test CRC 7E125442
Copy CRC 7E125442
Track not present in AccurateRip database
Copy OK
Track 5
Filename C:\! RUTRACKER\ru up\Agusti Fernandez - Morning Glory\CD2\05 - Aurora.wav
Peak level 94.4 %
Track quality 100.0 %
Test CRC AD5CCFCC
Copy CRC AD5CCFCC
Track not present in AccurateRip database
Copy OK
Track 6
Filename C:\! RUTRACKER\ru up\Agusti Fernandez - Morning Glory\CD2\06 - No Ni No.wav
Peak level 80.4 %
Track quality 100.0 %
Test CRC 6F6A3BE4
Copy CRC 6F6A3BE4
Track not present in AccurateRip database
Copy OK
Track 7
Filename C:\! RUTRACKER\ru up\Agusti Fernandez - Morning Glory\CD2\07 - Rounds.wav
Peak level 94.4 %
Track quality 100.0 %
Test CRC 2F19DDFB
Copy CRC 2F19DDFB
Track not present in AccurateRip database
Copy OK
None of the tracks are present in the AccurateRip database
No errors occurred
End of status report
 
Содержание индексной карты (.CUE)
Disc 1
REM GENRE "Free Jazz"
REM DATE 2010
REM DISCID B40D930C
REM COMMENT "ExactAudioCopy v0.99pb5"
PERFORMER "Agusti Fernandez"
TITLE "Morning Glory CD1"
FILE "01 - La nina de la calle Ibiza.wav" WAVE
TRACK 01 AUDIO
TITLE "La nina de la calle Ibiza"
PERFORMER "Agusti Fernandez"
ISRC GBAJR1000311
FLAGS DCP
INDEX 01 00:00:00
FILE "02 - Morning Glory.wav" WAVE
TRACK 02 AUDIO
TITLE "Morning Glory"
PERFORMER "Agusti Fernandez"
ISRC GBAJR1000312
FLAGS DCP
INDEX 01 00:00:00
TRACK 03 AUDIO
TITLE "Unfinished Letter"
PERFORMER "Agusti Fernandez"
ISRC GBAJR1000313
FLAGS DCP
INDEX 00 01:54:39
FILE "03 - Unfinished Letter.wav" WAVE
INDEX 01 00:00:00
TRACK 04 AUDIO
TITLE "Zahori"
PERFORMER "Agusti Fernandez"
ISRC GBAJR1000314
FLAGS DCP
INDEX 00 02:19:04
FILE "04 - Zahori.wav" WAVE
INDEX 01 00:00:00
TRACK 05 AUDIO
TITLE "An Anonymous Soul"
PERFORMER "Agusti Fernandez"
ISRC GBAJR1000315
FLAGS DCP
INDEX 00 04:55:24
FILE "05 - An Anonymous Soul.wav" WAVE
INDEX 01 00:00:00
TRACK 06 AUDIO
TITLE "Perpetuum Mobile"
PERFORMER "Agusti Fernandez"
ISRC GBAJR1000316
FLAGS DCP
INDEX 00 04:00:42
FILE "06 - Perpetuum Mobile.wav" WAVE
INDEX 01 00:00:00
FILE "07 - Benito (Jordi Benito in absentia).wav" WAVE
TRACK 07 AUDIO
TITLE "Benito (Jordi Benito in absentia)"
PERFORMER "Agusti Fernandez"
ISRC GBAJR1000317
FLAGS DCP
INDEX 01 00:00:00
TRACK 08 AUDIO
TITLE "The Magical Chorus"
PERFORMER "Agusti Fernandez"
ISRC GBAJR1000318
FLAGS DCP
INDEX 00 10:10:13
FILE "08 - The Magical Chorus.wav" WAVE
INDEX 01 00:00:00
TRACK 09 AUDIO
TITLE "Glade"
PERFORMER "Agusti Fernandez"
ISRC GBAJR1000319
FLAGS DCP
INDEX 00 04:27:74
FILE "09 - Glade.wav" WAVE
INDEX 01 00:00:00
FILE "10 - Mourning.wav" WAVE
TRACK 10 AUDIO
TITLE "Mourning"
PERFORMER "Agusti Fernandez"
ISRC GBAJR1000319
FLAGS DCP
INDEX 01 00:00:00
FILE "11 - A Sudden Appearance.wav" WAVE
TRACK 11 AUDIO
TITLE "A Sudden Appearance"
PERFORMER "Agusti Fernandez"
ISRC GBAJR1000321
FLAGS DCP
INDEX 01 00:00:00
TRACK 12 AUDIO
TITLE "Belvedere"
PERFORMER "Agusti Fernandez"
ISRC GBAJR1000322
FLAGS DCP
INDEX 00 02:40:71
FILE "12 - Belvedere.wav" WAVE
INDEX 01 00:00:00
Disc 2
REM GENRE "Free Jazz"
REM DATE 2009
REM DISCID 5C0D6907
REM COMMENT "ExactAudioCopy v0.99pb5"
PERFORMER "Agusti Fernandez"
TITLE "Live In New York CD2"
FILE "01 - Don Miquel.wav" WAVE
TRACK 01 AUDIO
TITLE "Don Miquel"
PERFORMER "Agusti Fernandez"
ISRC GBAJR1000323
FLAGS DCP
INDEX 01 00:00:00
FILE "02 - Odyssey.wav" WAVE
TRACK 02 AUDIO
TITLE "Odyssey"
PERFORMER "Agusti Fernandez"
ISRC GBAJR1000324
FLAGS DCP
INDEX 01 00:00:00
FILE "03 - Can Ram.wav" WAVE
TRACK 03 AUDIO
TITLE "Can Ram"
PERFORMER "Agusti Fernandez"
ISRC GBAJR1000325
FLAGS DCP
INDEX 01 00:00:00
FILE "04 - David M.wav" WAVE
TRACK 04 AUDIO
TITLE "David M"
PERFORMER "Agusti Fernandez"
ISRC GBAJR1000326
FLAGS DCP
INDEX 01 00:00:00
FILE "05 - Aurora.wav" WAVE
TRACK 05 AUDIO
TITLE "Aurora"
PERFORMER "Agusti Fernandez"
ISRC GBAJR1000326
FLAGS DCP
INDEX 01 00:00:00
FILE "06 - No Ni No.wav" WAVE
TRACK 06 AUDIO
TITLE "No Ni No"
PERFORMER "Agusti Fernandez"
ISRC GBAJR1000328
FLAGS DCP
INDEX 01 00:00:00
FILE "07 - Rounds.wav" WAVE
TRACK 07 AUDIO
TITLE "Rounds"
PERFORMER "Agusti Fernandez"
ISRC GBAJR1000329
FLAGS DCP
INDEX 01 00:00:00
Доп. информация: 2-disc set containing Morning Glory and Live in New York
CD 1 Recorded 5 & 6. February 2010 in 44.1 Estudi de Gravació, Girona
CD 2 Recorded live 14. May 2009 in the Jazz Standard, New York
 
Об альбоме (сборнике)
... Morning Glory rises as a monument dedicated to all music; music that has come and gone, music in the making, and music yet to come. Any genre, any emotion, any referent finds expression in this work, where introspection (“An Anonymous Soul”) mixes with euphoria (“Morning Glory”), love (“La niña de la calle Ibiza”) with grieving over a love that shall remain unspoken (“Mourning”), and a wink at baroque forms (“Benito”) with one at Ornette Coleman (“Zahorí”)... Two sides of a coin, and a strong enough argument to accept the invitation extended by these three boatmen to enlist on a journey where relentless search, uncertain outcomes, and constant surprises are the leitmotiv for them surely, but for us as well.
 
Состав
Agustí Fernández - Piano
Barry Guy - Double Bass
Ramón López - Drums and Percussion
Any questions -> support@pro-jazz.com. По всем вопросам пишите -> support@pro-jazz.com
07:03
167
Нет комментариев. Ваш будет первым!