Вы используете незарегистрированную версию компонента "Вкладки"!

Поиск

(Free Jazz) The Ullmann / Swell 4 (Hilliard Greene, Barry Altschul) - News? No News! - 2010, FLAC (tracks+.cue), lossless

Треклист:
The Ullmann / Swell 4 - News? No News!
Жанр: Free Jazz
Год выпуска диска: 2010
Производитель диска: jazzwerkstatt (jw 068)
Источник: soulseek
Аудио кодек: FLAC
Тип рипа: tracks+.cue
Битрейт аудио: lossless
Продолжительность: 1:09:07
Трэклист:
1. More Hello [05:18] (Steve Swell)
2. New York 5:50 [07:04] (Gebhard Ullmann)
3. Composite #1 [09:46] (Steve Swell)
4. Kleine Figuren #2 [05:23] (Gebhard Ullmann)
5. Planet Hopping On A Thursday Afternoon [07:03] (Steve Swell)
6. GPS #1 [05:27] (Ullmann/Swell/Greene/Altschul)
7. News? No News! [07:58] (Gebhard Ullmann)
8. GPS #2 [03:27] (Ullmann/Swell/Greene/Altschul)
9. Berlin 9:35 [07:39] (Gebhard Ullmann)
10. Airtight [10:01] (Steve Swell)
Recorded at Systems Two, Brooklyn, New York on June 11, 2008
Gebhard Ullmann - tenor saxophone, bass clarinet
Steve Swell - trombone
Hilliard Greene - double bass
Barry Altschul - drums
 
Отчёт EAC
Exact Audio Copy V0.99 prebeta 5 from 4. May 2009
EAC extraction logfile from 18. April 2010, 21:38
The Ullmann Swell 4 / News? No News!
Used drive : PLEXTOR CD-R PX-230A Adapter: 0 ID: 1
Read mode : Secure
Utilize accurate stream : Yes
Defeat audio cache : Yes
Make use of C2 pointers : No
Read offset correction : 0
Overread into Lead-In and Lead-Out : No
Fill up missing offset samples with silence : Yes
Delete leading and trailing silent blocks : No
Null samples used in CRC calculations : No
Used interface : Installed external ASPI interface
Gap handling : Not detected, thus appended to previous track
Used output format : Internal WAV Routines
Sample format : 44.100 Hz; 16 Bit; Stereo
TOC of the extracted CD
Track | Start | Length | Start sector | End sector
---------------------------------------------------------
1 | 0:00.00 | 5:18.61 | 0 | 23910
2 | 5:18.61 | 7:03.49 | 23911 | 55684
3 | 12:22.35 | 9:45.60 | 55685 | 99619
4 | 22:08.20 | 5:22.58 | 99620 | 123827
5 | 27:31.03 | 7:03.40 | 123828 | 155592
6 | 34:34.43 | 5:26.39 | 155593 | 180081
7 | 40:01.07 | 7:58.66 | 180082 | 215997
8 | 47:59.73 | 3:26.41 | 215998 | 231488
9 | 51:26.39 | 7:38.36 | 231489 | 265874
10 | 59:05.00 | 10:01.38 | 265875 | 310987
Track 1
Filename E:\music\The Ullmann Swell 4 - News No News\01 More Hello.wav
Peak level 98.8 %
Track quality 99.9 %
Copy CRC 5B97D927
Copy OK
Track 2
Filename E:\music\The Ullmann Swell 4 - News No News\02 New York 5_50.wav
Peak level 98.8 %
Track quality 100.0 %
Copy CRC 0B26D105
Copy OK
Track 3
Filename E:\music\The Ullmann Swell 4 - News No News\03 Composite #1.wav
Peak level 98.8 %
Track quality 100.0 %
Copy CRC 8CC942B5
Copy OK
Track 4
Filename E:\music\The Ullmann Swell 4 - News No News\04 Kleine Figuren #2.wav
Peak level 98.8 %
Track quality 99.9 %
Copy CRC 967D478D
Copy OK
Track 5
Filename E:\music\The Ullmann Swell 4 - News No News\05 Planet Hopping On A Thursday Afternoon.wav
Peak level 98.8 %
Track quality 100.0 %
Copy CRC E0B1DB9E
Copy OK
Track 6
Filename E:\music\The Ullmann Swell 4 - News No News\06 GPS #1.wav
Peak level 98.8 %
Track quality 100.0 %
Copy CRC F24DAB84
Copy OK
Track 7
Filename E:\music\The Ullmann Swell 4 - News No News\07 News No News.wav
Peak level 98.8 %
Track quality 100.0 %
Copy CRC D6110E4E
Copy OK
Track 8
Filename E:\music\The Ullmann Swell 4 - News No News\08 GPS #2.wav
Peak level 98.8 %
Track quality 99.9 %
Copy CRC 0DE83C01
Copy OK
Track 9
Filename E:\music\The Ullmann Swell 4 - News No News\09 Berlin 9_35.wav
Peak level 98.8 %
Track quality 100.0 %
Copy CRC 60E3EBA7
Copy OK
Track 10
Filename E:\music\The Ullmann Swell 4 - News No News\10 Airtight.wav
Peak level 98.8 %
Track quality 100.0 %
Copy CRC 09423062
Copy OK
No errors occurred
End of status report
 
Отчёт Audiocheckera
AUDIOCHECKER v2.0 beta (build 457) - by Dester - opdester@freemail.hu
~~~~~~~~~~~~~~~~~~~~~~~~~~~~~~~~~~
-=== DO NOT EDIT THIS FILE! ===-
Path: ...\gebhard ullmann, steve swell 4 - news no news
01 -=- 01 More Hello.flac -=- CDDA (100%)
02 -=- 02 New York 5_50.flac -=- CDDA (99%)
03 -=- 03 Composite #1.flac -=- CDDA (99%)
04 -=- 04 Kleine Figuren #2.flac -=- CDDA (100%)
05 -=- 05 Planet Hopping On A Thursday Afternoon.flac -=- CDDA (100%)
06 -=- 06 GPS #1.flac -=- CDDA (100%)
07 -=- 07 News No News.flac -=- CDDA (100%)
08 -=- 08 GPS #2.flac -=- CDDA (100%)
09 -=- 09 Berlin 9_35.flac -=- CDDA (99%)
10 -=- 10 Airtight.flac -=- CDDA (99%)
Summary 99.60% CDDA
151433572
 
cue
REM GENRE Jazz
REM DATE 2010
REM DISCID 7D10320A
REM COMMENT "ExactAudioCopy v0.99pb5"
PERFORMER "The Ullmann Swell 4"
TITLE "News? No News!"
FILE "01 More Hello.wav" WAVE
TRACK 01 AUDIO
TITLE "More Hello"
PERFORMER "The Ullmann Swell 4"
INDEX 01 00:00:00
TRACK 02 AUDIO
TITLE "New York 5_50"
PERFORMER "The Ullmann Swell 4"
INDEX 00 05:16:35
FILE "02 New York 5.50.wav" WAVE
INDEX 01 00:00:00
TRACK 03 AUDIO
TITLE "Composite #1"
PERFORMER "The Ullmann Swell 4"
INDEX 00 06:59:08
FILE "03 Composite #1.wav" WAVE
INDEX 01 00:00:00
TRACK 04 AUDIO
TITLE "Kleine Figuren #2"
PERFORMER "The Ullmann Swell 4"
INDEX 00 09:42:10
FILE "04 Kleine Figuren #2.wav" WAVE
INDEX 01 00:00:00
TRACK 05 AUDIO
TITLE "Planet Hopping On A Thursday Afternoon"
PERFORMER "The Ullmann Swell 4"
INDEX 00 05:19:37
FILE "05 Planet Hopping On A Thursday Afternoon.wav" WAVE
INDEX 01 00:00:00
TRACK 06 AUDIO
TITLE "GPS #1"
PERFORMER "The Ullmann Swell 4"
INDEX 00 06:59:65
FILE "06 GPS #1.wav" WAVE
INDEX 01 00:00:00
TRACK 07 AUDIO
TITLE "News No News"
PERFORMER "The Ullmann Swell 4"
INDEX 00 05:23:33
FILE "07 News No News.wav" WAVE
INDEX 01 00:00:00
TRACK 08 AUDIO
TITLE "GPS #2"
PERFORMER "The Ullmann Swell 4"
INDEX 00 07:56:47
FILE "08 GPS #2.wav" WAVE
INDEX 01 00:00:00
TRACK 09 AUDIO
TITLE "Berlin 9.35"
PERFORMER "The Ullmann Swell 4"
INDEX 00 03:25:25
FILE "09 Berlin 9_35.wav" WAVE
INDEX 01 00:00:00
TRACK 10 AUDIO
TITLE "Airtight"
PERFORMER "The Ullmann Swell 4"
INDEX 00 07:36:25
FILE "10 Airtight.wav" WAVE
INDEX 01 00:00:00
По всем вопросам пишите личное сообщение пользователю M0p94ok.
22:38
155
Нет комментариев. Ваш будет первым!