Поиск

(Contemporary Jazz) David Binney - Bastion of Sanity (1261 CD) - 2005, FLAC (tracks+.cue), lossless

(Contemporary Jazz) David Binney - Bastion of Sanity (1261 CD) - 2005, FLAC (tracks+.cue), lossless
Треклист:
David Binney - Bastion of Sanity
Жанр: Contemporary Jazz
Год выпуска диска: 2005
Производитель диска: Criss Cross
Аудио кодек: FLAC
Тип рипа: tracks+.cue
Битрейт аудио: lossless
Продолжительность: 77:11
01 - Lester Left Town [08:02]
02 - Try [11:00]
03 - Plan [05:11]
04 - Bastion Of Sanity [09:42]
05 - Last Minute [04:45]
06 - Heaven [06:34]
07 - Gesturecalm [12:20]
08 - Right Before [09:13]
09 - PF [10:18]
from what.cd
 
Log EAC
Exact Audio Copy V0.99 prebeta 4 from 23. January 2008
EAC extraction logfile from 25. August 2008, 9:33
David Binney / Bastion Of Sanity
Used drive : MATSHITADVD-RAM UJ-841S Adapter: 1 ID: 0
Read mode : Secure
Utilize accurate stream : Yes
Defeat audio cache : Yes
Make use of C2 pointers : No
Read offset correction : 102
Overread into Lead-In and Lead-Out : No
Fill up missing offset samples with silence : Yes
Delete leading and trailing silent blocks : No
Null samples used in CRC calculations : Yes
Used interface : Native Win32 interface for Win NT & 2000
Gap handling : Appended to previous track
Used output format : User Defined Encoder
Selected bitrate : 128 kBit/s
Quality : High
Add ID3 tag : No
Command line compressor : C:\Program Files\Exact Audio Copy\Flac\flac.exe
Additional command line options : -V -8 -T "artist=%a" -T "title=%t" -T "album=%g" -T "date=%y" -T "tracknumber=%n" -T "genre=%m" %s
TOC of the extracted CD
Track | Start | Length | Start sector | End sector
---------------------------------------------------------
1 | 0:00.00 | 8:02.57 | 0 | 36206
2 | 8:02.57 | 11:00.67 | 36207 | 85773
3 | 19:03.49 | 5:11.69 | 85774 | 109167
4 | 24:15.43 | 9:42.35 | 109168 | 152852
5 | 33:58.03 | 4:45.63 | 152853 | 174290
6 | 38:43.66 | 6:34.34 | 174291 | 203874
7 | 45:18.25 | 12:20.74 | 203875 | 259448
8 | 57:39.24 | 9:13.18 | 259449 | 300941
9 | 66:52.42 | 10:18.46 | 300942 | 347337
Track 1
Filename C:\EAC rips\David Binney - 2005 - Bastion Of Sanity\01 - Lester Left Town.wav
Pre-gap length 0:00:02.00
Peak level 97.9 %
Track quality 100.0 %
Test CRC 1A9FE258
Copy CRC 1A9FE258
Track not present in AccurateRip database
Copy OK
Track 2
Filename C:\EAC rips\David Binney - 2005 - Bastion Of Sanity\02 - Try.wav
Pre-gap length 0:00:03.77
Peak level 97.9 %
Track quality 100.0 %
Test CRC E29C429F
Copy CRC E29C429F
Track not present in AccurateRip database
Copy OK
Track 3
Filename C:\EAC rips\David Binney - 2005 - Bastion Of Sanity\03 - Plan.wav
Pre-gap length 0:00:03.77
Peak level 98.0 %
Track quality 100.0 %
Test CRC 3E5169B6
Copy CRC 3E5169B6
Track not present in AccurateRip database
Copy OK
Track 4
Filename C:\EAC rips\David Binney - 2005 - Bastion Of Sanity\04 - Bastion Of Sanity.wav
Pre-gap length 0:00:03.77
Peak level 97.9 %
Track quality 100.0 %
Test CRC 0062E6B1
Copy CRC 0062E6B1
Track not present in AccurateRip database
Copy OK
Track 5
Filename C:\EAC rips\David Binney - 2005 - Bastion Of Sanity\05 - Last Minute.wav
Peak level 97.9 %
Track quality 100.0 %
Test CRC A6484C22
Copy CRC A6484C22
Track not present in AccurateRip database
Copy OK
Track 6
Filename C:\EAC rips\David Binney - 2005 - Bastion Of Sanity\06 - Heaven.wav
Pre-gap length 0:00:03.77
Peak level 97.9 %
Track quality 100.0 %
Test CRC 661872CF
Copy CRC 661872CF
Track not present in AccurateRip database
Copy OK
Track 7
Filename C:\EAC rips\David Binney - 2005 - Bastion Of Sanity\07 - Gesturecalm.wav
Pre-gap length 0:00:03.77
Peak level 98.0 %
Track quality 100.0 %
Test CRC C11282A3
Copy CRC C11282A3
Track not present in AccurateRip database
Copy OK
Track 8
Filename C:\EAC rips\David Binney - 2005 - Bastion Of Sanity\08 - Right Before.wav
Pre-gap length 0:00:03.77
Peak level 97.9 %
Track quality 100.0 %
Test CRC B72D899B
Copy CRC B72D899B
Track not present in AccurateRip database
Copy OK
Track 9
Filename C:\EAC rips\David Binney - 2005 - Bastion Of Sanity\09 - PF.wav
Pre-gap length 0:00:03.77
Peak level 97.9 %
Track quality 100.0 %
Test CRC E3F545EE
Copy CRC E3F545EE
Track not present in AccurateRip database
Copy OK
None of the tracks are present in the AccurateRip database
No errors occurred
End of status report
 
CUE
REM GENRE Jazz
REM DATE 2005
REM DISCID 62121709
REM COMMENT "ExactAudioCopy v0.99pb4"
PERFORMER "David Binney"
TITLE "Bastion Of Sanity"
FILE "01 - Lester Left Town.wav" WAVE
TRACK 01 AUDIO
TITLE "Lester Left Town"
PERFORMER "David Binney"
INDEX 01 00:00:00
TRACK 02 AUDIO
TITLE "Try"
PERFORMER "David Binney"
INDEX 00 07:58:74
FILE "02 - Try.wav" WAVE
INDEX 01 00:00:00
TRACK 03 AUDIO
TITLE "Plan"
PERFORMER "David Binney"
INDEX 00 10:57:09
FILE "03 - Plan.wav" WAVE
INDEX 01 00:00:00
TRACK 04 AUDIO
TITLE "Bastion Of Sanity"
PERFORMER "David Binney"
INDEX 00 05:08:11
FILE "04 - Bastion Of Sanity.wav" WAVE
INDEX 01 00:00:00
FILE "05 - Last Minute.wav" WAVE
TRACK 05 AUDIO
TITLE "Last Minute"
PERFORMER "David Binney"
INDEX 01 00:00:00
TRACK 06 AUDIO
TITLE "Heaven"
PERFORMER "David Binney"
INDEX 00 04:42:05
FILE "06 - Heaven.wav" WAVE
INDEX 01 00:00:00
TRACK 07 AUDIO
TITLE "Gesturecalm"
PERFORMER "David Binney"
INDEX 00 06:30:51
FILE "07 - Gesturecalm.wav" WAVE
INDEX 01 00:00:00
TRACK 08 AUDIO
TITLE "Right Before"
PERFORMER "David Binney"
INDEX 00 12:17:16
FILE "08 - Right Before.wav" WAVE
INDEX 01 00:00:00
TRACK 09 AUDIO
TITLE "PF"
PERFORMER "David Binney"
INDEX 00 09:09:35
FILE "09 - PF.wav" WAVE
INDEX 01 00:00:00
По всем вопросам пишите личное сообщение пользователю M0p94ok.
22:39
280
Нет комментариев. Ваш будет первым!