Поиск

(Free Improvisation) Gunter Christmann / Mats Gustafsson - One To (Two)............... - 1998, FLAC (tracks+.cue), lossless

(Free Improvisation) Gunter Christmann / Mats Gustafsson - One To (Two)............... - 1998, FLAC (tracks+.cue), lossless
Треклист:
Günter Christmann / Mats Gustafsson - One To (Two)...............
Жанр: Free Improvisation
Год выпуска диска: 1998
Производитель диска: Okka Disk (ODL10002)
Источник: вот.сиди (bwoy)
Аудио кодек: FLAC
Тип рипа: tracks+.cue
Битрейт аудио: lossless
Продолжительность: 1:02:01
Трэклист:
1. One to... (3:30)
2. Two to... (4:07)
3. Three to... (1:07)
4. Four to... (3:29)
5. Five to... (4:54)
6. Six to... (2:26)
7. Seven to... (1:38)
8. Eight to... (5:32)
9. Nine to... (1:51)
10. Ten to... (3:41)
11. Eleven to... (3:34)
12. Twelve to... (3:42)
13. Thirteen to... (2:44)
14. Fourteen to... (5:01)
15. Fifteen to... (3:48)
16. Sixteen to... (2:25)
17. Seventeen to... (1:16)
18. Eighteen to... (7:07)
Recorded at the Kesselhaus in Hanover, Germany, August 15 (during live concert) & 16, 1997
Günter Christmann — cello, trombone
Mats Gustafsson — saxophones
 
Отчёт EAC
Exact Audio Copy V0.99 prebeta 5 from 4. May 2009
EAC extraction logfile from 9. April 2010, 20:13
Gьnter Christmann and Mats Gustafsson / One to (two)
Used drive : TSSTcorpCDDVDW SH-S223B Adapter: 4 ID: 0
Read mode : Secure
Utilize accurate stream : Yes
Defeat audio cache : Yes
Make use of C2 pointers : No
Read offset correction : 6
Overread into Lead-In and Lead-Out : No
Fill up missing offset samples with silence : Yes
Delete leading and trailing silent blocks : No
Null samples used in CRC calculations : Yes
Used interface : Native Win32 interface for Win NT & 2000
Gap handling : Appended to previous track
Used output format : User Defined Encoder
Selected bitrate : 192 kBit/s
Quality : High
Add ID3 tag : No
Command line compressor : C:\Program Files\FLAC\flac.exe
Additional command line options : -8 -b 4096 -V -T "artist=%a" -T "title=%t" -T "album=%g" -T "date=%y" -T "tracknumber=%n" -T "genre=%m" %s
TOC of the extracted CD
Track | Start | Length | Start sector | End sector
---------------------------------------------------------
1 | 0:00.00 | 3:36.55 | 0 | 16254
2 | 3:36.55 | 4:09.47 | 16255 | 34976
3 | 7:46.27 | 1:07.30 | 34977 | 40031
4 | 8:53.57 | 3:29.58 | 40032 | 55764
5 | 12:23.40 | 4:54.65 | 55765 | 77879
6 | 17:18.30 | 2:26.47 | 77880 | 88876
7 | 19:45.02 | 1:38.43 | 88877 | 96269
8 | 21:23.45 | 5:32.05 | 96270 | 121174
9 | 26:55.50 | 1:51.55 | 121175 | 129554
10 | 28:47.30 | 3:41.65 | 129555 | 146194
11 | 32:29.20 | 3:34.52 | 146195 | 162296
12 | 36:03.72 | 3:42.23 | 162297 | 178969
13 | 39:46.20 | 2:44.12 | 178970 | 191281
14 | 42:30.32 | 5:01.08 | 191282 | 213864
15 | 47:31.40 | 3:48.12 | 213865 | 230976
16 | 51:19.52 | 2:25.33 | 230977 | 241884
17 | 53:45.10 | 1:16.72 | 241885 | 247656
18 | 55:02.07 | 6:59.28 | 247657 | 279109
Track 1
Filename C:\FLAC\Gьnter Christmann and Mats Gustafsson\1998 - One to (two)\01. One to......wav
Pre-gap length 0:00:02.00
Peak level 97.2 %
Track quality 100.0 %
Test CRC 6D570BFF
Copy CRC 6D570BFF
Track not present in AccurateRip database
Copy OK
Track 2
Filename C:\FLAC\Gьnter Christmann and Mats Gustafsson\1998 - One to (two)\02. Two to......wav
Pre-gap length 0:00:06.86
Peak level 76.3 %
Track quality 100.0 %
Test CRC B5AD601A
Copy CRC B5AD601A
Track not present in AccurateRip database
Copy OK
Track 3
Filename C:\FLAC\Gьnter Christmann and Mats Gustafsson\1998 - One to (two)\03. Three to......wav
Pre-gap length 0:00:09.13
Peak level 79.3 %
Track quality 99.8 %
Test CRC 3D852BCA
Copy CRC 3D852BCA
Track not present in AccurateRip database
Copy OK
Track 4
Filename C:\FLAC\Gьnter Christmann and Mats Gustafsson\1998 - One to (two)\04. Four to......wav
Pre-gap length 0:00:09.13
Peak level 70.4 %
Track quality 100.0 %
Test CRC 55DE9E0C
Copy CRC 55DE9E0C
Track not present in AccurateRip database
Copy OK
Track 5
Filename C:\FLAC\Gьnter Christmann and Mats Gustafsson\1998 - One to (two)\05. Five to......wav
Pre-gap length 0:00:09.13
Peak level 97.6 %
Track quality 99.9 %
Test CRC 79520CF2
Copy CRC 79520CF2
Track not present in AccurateRip database
Copy OK
Track 6
Filename C:\FLAC\Gьnter Christmann and Mats Gustafsson\1998 - One to (two)\06. Six to......wav
Pre-gap length 0:00:09.13
Peak level 100.0 %
Track quality 100.0 %
Test CRC FCD467A6
Copy CRC FCD467A6
Track not present in AccurateRip database
Copy OK
Track 7
Filename C:\FLAC\Gьnter Christmann and Mats Gustafsson\1998 - One to (two)\07. Seven to......wav
Pre-gap length 0:00:09.13
Peak level 100.0 %
Track quality 100.0 %
Test CRC 8F6189BF
Copy CRC 8F6189BF
Track not present in AccurateRip database
Copy OK
Track 8
Filename C:\FLAC\Gьnter Christmann and Mats Gustafsson\1998 - One to (two)\08. Eight to......wav
Pre-gap length 0:00:09.13
Peak level 73.3 %
Track quality 99.9 %
Test CRC 26036472
Copy CRC 26036472
Track not present in AccurateRip database
Copy OK
Track 9
Filename C:\FLAC\Gьnter Christmann and Mats Gustafsson\1998 - One to (two)\09. Nine to......wav
Pre-gap length 0:00:09.13
Peak level 75.5 %
Track quality 100.0 %
Test CRC 2540A3FC
Copy CRC 2540A3FC
Track not present in AccurateRip database
Copy OK
Track 10
Filename C:\FLAC\Gьnter Christmann and Mats Gustafsson\1998 - One to (two)\10. Ten to......wav
Pre-gap length 0:00:09.13
Peak level 100.0 %
Track quality 100.0 %
Test CRC 3CF4A751
Copy CRC 3CF4A751
Track not present in AccurateRip database
Copy OK
Track 11
Filename C:\FLAC\Gьnter Christmann and Mats Gustafsson\1998 - One to (two)\11. Eleven to......wav
Pre-gap length 0:00:09.17
Peak level 100.0 %
Track quality 100.0 %
Test CRC B79CB958
Copy CRC B79CB958
Track not present in AccurateRip database
Copy OK
Track 12
Filename C:\FLAC\Gьnter Christmann and Mats Gustafsson\1998 - One to (two)\12. Twelve to......wav
Pre-gap length 0:00:09.13
Peak level 100.0 %
Track quality 100.0 %
Test CRC 706F5D53
Copy CRC 706F5D53
Track not present in AccurateRip database
Copy OK
Track 13
Filename C:\FLAC\Gьnter Christmann and Mats Gustafsson\1998 - One to (two)\13. Thirteen to......wav
Pre-gap length 0:00:09.13
Peak level 99.7 %
Track quality 100.0 %
Test CRC EA29C2FE
Copy CRC EA29C2FE
Track not present in AccurateRip database
Copy OK
Track 14
Filename C:\FLAC\Gьnter Christmann and Mats Gustafsson\1998 - One to (two)\14. Fourteen to......wav
Pre-gap length 0:00:09.13
Peak level 100.0 %
Track quality 100.0 %
Test CRC 8C38B9F6
Copy CRC 8C38B9F6
Track not present in AccurateRip database
Copy OK
Track 15
Filename C:\FLAC\Gьnter Christmann and Mats Gustafsson\1998 - One to (two)\15. Fifteen to......wav
Pre-gap length 0:00:09.13
Peak level 82.5 %
Track quality 100.0 %
Test CRC 9E762075
Copy CRC 9E762075
Track not present in AccurateRip database
Copy OK
Track 16
Filename C:\FLAC\Gьnter Christmann and Mats Gustafsson\1998 - One to (two)\16. Sixteen to......wav
Pre-gap length 0:00:09.13
Peak level 70.2 %
Track quality 99.9 %
Test CRC F7976BE9
Copy CRC F7976BE9
Track not present in AccurateRip database
Copy OK
Track 17
Filename C:\FLAC\Gьnter Christmann and Mats Gustafsson\1998 - One to (two)\17. Seventeen to......wav
Pre-gap length 0:00:09.13
Peak level 76.6 %
Track quality 100.0 %
Test CRC 43CFBF91
Copy CRC 43CFBF91
Track not present in AccurateRip database
Copy OK
Track 18
Filename C:\FLAC\Gьnter Christmann and Mats Gustafsson\1998 - One to (two)\18. Eighteen to......wav
Pre-gap length 0:00:09.13
Peak level 70.3 %
Track quality 99.9 %
Test CRC C7E8B6E1
Copy CRC C7E8B6E1
Track not present in AccurateRip database
Copy OK
None of the tracks are present in the AccurateRip database
No errors occurred
End of status report
 
Отчёт Audiocheckera
AUDIOCHECKER v2.0 beta (build 457) - by Dester - opdester@freemail.hu
~~~~~~~~~~~~~~~~~~~~~~~~~~~~~~~~~~
-=== DO NOT EDIT THIS FILE! ===-
Path: ...\1998 - One to (two)
01 -=- 01. One to......flac -=- CDDA (100%)
02 -=- 02. Two to......flac -=- CDDA (100%)
03 -=- 03. Three to......flac -=- CDDA (100%)
04 -=- 04. Four to......flac -=- CDDA (100%)
05 -=- 05. Five to......flac -=- CDDA (100%)
06 -=- 06. Six to......flac -=- CDDA (100%)
07 -=- 07. Seven to......flac -=- CDDA (100%)
08 -=- 08. Eight to......flac -=- CDDA (100%)
09 -=- 09. Nine to......flac -=- CDDA (100%)
10 -=- 10. Ten to......flac -=- CDDA (100%)
11 -=- 11. Eleven to......flac -=- CDDA (99%)
12 -=- 12. Twelve to......flac -=- CDDA (100%)
13 -=- 13. Thirteen to......flac -=- CDDA (99%)
14 -=- 14. Fourteen to......flac -=- CDDA (100%)
15 -=- 15. Fifteen to......flac -=- CDDA (100%)
16 -=- 16. Sixteen to......flac -=- CDDA (100%)
17 -=- 17. Seventeen to......flac -=- CDDA (100%)
18 -=- 18. Eighteen to......flac -=- CDDA (100%)
Summary 99.89% CDDA
16508356
 
cue
REM GENRE Avantgarde
REM DATE 1998
REM DISCID FB0E8912
REM COMMENT "ExactAudioCopy v0.99pb5"
PERFORMER "Gьnter Christmann and Mats Gustafsson"
TITLE "One to (two)"
FILE "01. One to......flac" WAVE
TRACK 01 AUDIO
TITLE "One to....."
PERFORMER "Gьnter Christmann and Mats Gustafsson"
INDEX 01 00:00:00
TRACK 02 AUDIO
TITLE "Two to....."
PERFORMER "Gьnter Christmann and Mats Gustafsson"
INDEX 00 03:29:65
FILE "02. Two to......flac" WAVE
INDEX 01 00:00:00
TRACK 03 AUDIO
TITLE "Three to....."
PERFORMER "Gьnter Christmann and Mats Gustafsson"
INDEX 00 04:00:37
FILE "03. Three to......flac" WAVE
INDEX 01 00:00:00
TRACK 04 AUDIO
TITLE "Four to....."
PERFORMER "Gьnter Christmann and Mats Gustafsson"
INDEX 00 00:58:20
FILE "04. Four to......flac" WAVE
INDEX 01 00:00:00
TRACK 05 AUDIO
TITLE "Five to....."
PERFORMER "Gьnter Christmann and Mats Gustafsson"
INDEX 00 03:20:48
FILE "05. Five to......flac" WAVE
INDEX 01 00:00:00
TRACK 06 AUDIO
TITLE "Six to....."
PERFORMER "Gьnter Christmann and Mats Gustafsson"
INDEX 00 04:45:55
FILE "06. Six to......flac" WAVE
INDEX 01 00:00:00
TRACK 07 AUDIO
TITLE "Seven to....."
PERFORMER "Gьnter Christmann and Mats Gustafsson"
INDEX 00 02:17:37
FILE "07. Seven to......flac" WAVE
INDEX 01 00:00:00
TRACK 08 AUDIO
TITLE "Eight to....."
PERFORMER "Gьnter Christmann and Mats Gustafsson"
INDEX 00 01:29:33
FILE "08. Eight to......flac" WAVE
INDEX 01 00:00:00
TRACK 09 AUDIO
TITLE "Nine to....."
PERFORMER "Gьnter Christmann and Mats Gustafsson"
INDEX 00 05:22:70
FILE "09. Nine to......flac" WAVE
INDEX 01 00:00:00
TRACK 10 AUDIO
TITLE "Ten to....."
PERFORMER "Gьnter Christmann and Mats Gustafsson"
INDEX 00 01:42:45
FILE "10. Ten to......flac" WAVE
INDEX 01 00:00:00
TRACK 11 AUDIO
TITLE "Eleven to....."
PERFORMER "Gьnter Christmann and Mats Gustafsson"
INDEX 00 03:32:52
FILE "11. Eleven to......flac" WAVE
INDEX 01 00:00:00
TRACK 12 AUDIO
TITLE "Twelve to....."
PERFORMER "Gьnter Christmann and Mats Gustafsson"
INDEX 00 03:25:42
FILE "12. Twelve to......flac" WAVE
INDEX 01 00:00:00
TRACK 13 AUDIO
TITLE "Thirteen to....."
PERFORMER "Gьnter Christmann and Mats Gustafsson"
INDEX 00 03:33:13
FILE "13. Thirteen to......flac" WAVE
INDEX 01 00:00:00
TRACK 14 AUDIO
TITLE "Fourteen to....."
PERFORMER "Gьnter Christmann and Mats Gustafsson"
INDEX 00 02:35:02
FILE "14. Fourteen to......flac" WAVE
INDEX 01 00:00:00
TRACK 15 AUDIO
TITLE "Fifteen to....."
PERFORMER "Gьnter Christmann and Mats Gustafsson"
INDEX 00 04:51:73
FILE "15. Fifteen to......flac" WAVE
INDEX 01 00:00:00
TRACK 16 AUDIO
TITLE "Sixteen to....."
PERFORMER "Gьnter Christmann and Mats Gustafsson"
INDEX 00 03:39:02
FILE "16. Sixteen to......flac" WAVE
INDEX 01 00:00:00
TRACK 17 AUDIO
TITLE "Seventeen to....."
PERFORMER "Gьnter Christmann and Mats Gustafsson"
INDEX 00 02:16:23
FILE "17. Seventeen to......flac" WAVE
INDEX 01 00:00:00
TRACK 18 AUDIO
TITLE "Eighteen to....."
PERFORMER "Gьnter Christmann and Mats Gustafsson"
INDEX 00 01:07:62
FILE "18. Eighteen to......flac" WAVE
INDEX 01 00:00:00
По всем вопросам пишите личное сообщение пользователю M0p94ok.
22:38
241
Нет комментариев. Ваш будет первым!