Поиск

(free-jazz) The Thing - Action Jazz - 2006, FLAC (image + .cue), lossless

Треклист:
The Thing - Action Jazz
Жанр: free-jazz
Год выпуска: 2006
Формат: FLAC (image + .cue)
Битрейт аудио: lossless
Продолжительность: 49:35
Трэклист:
1. Sounds Like A Sandwich (Cato Salsa Experience) 2:04
2. Chiasma (Yosuke Yamashita) 4:58
3. Broken Shadows (Ornette Coleman) 2:29
4. Ride The Sky (Lightning Bolt) 2:13
5. Better Living... (The Thing) 7:25
6. Danny's Dream (Lars Gullin) 7:33
7. The Nut/The Light (Alva Mellin) 6:38
8. ...through BBQ (The Thing) 9:11
9. Strayhorn (Mats Gustafsson) 7:04
Доп. информация:
Mats Gustafsson: grafton plastic alto, baritone and slide saxophones
Ingebrigt Håker Flaten: double bass
Paal Nilssen-Love: drums & percussion
 
Очет ЕАС
Exact Audio Copy V0.99 prebeta 3 from 28. July 2007
Отчёт EAC об извлечении, выполненном 28. марта 2008, 21:49
Unknown Artist / Unknown Title
Дисковод: HL-DT-STDVDRAM GSA-4167B Adapter: 1 ID: 0
Режим чтения : Достоверность
Использование точного потока : Да
Отключение кэша аудио : Да
Использование указателей C2 : Нет
Коррекция смещения при чтении : 667
Способность читать области Lead-in и Lead-out : Нет
Заполнение пропущенных сэмплов тишиной : Да
Удаление блоков с тишиной в начале и конце : Нет
При вычислениях CRC использовались нулевые сэмплы : Да
Интерфейс : Встроенный Win32-интерфейс для Win NT/2000
Выходной формат : Внутренние WAV-операции
Формат сэмплов : 44.100 Гц; 16 бит; стерео
Смещение при сжатии : 0
TOC извлечённого CD
Трек | Старт | Длительность | Начальный сектор | Конечный сектор
---------------------------------------------------------------------
1 | 0:00.00 | 2:04.23 | 0 | 9322
2 | 2:04.23 | 4:58.12 | 9323 | 31684
3 | 7:02.35 | 2:28.51 | 31685 | 42835
4 | 9:31.11 | 2:13.32 | 42836 | 52842
5 | 11:44.43 | 7:25.02 | 52843 | 86219
6 | 19:09.45 | 7:33.13 | 86220 | 120207
7 | 26:42.58 | 6:38.29 | 120208 | 150086
8 | 33:21.12 | 9:10.65 | 150087 | 191401
9 | 42:32.02 | 7:03.72 | 191402 | 223198
Характеристики диапазона извлечения и сообщения об ошибках
Выбранный диапазон
Имя файла G:\Lossless music\The Thing - Action Jazz.wav
Пиковый уровень 98.9 %
Качество диапазона 99.9 %
CRC копии 70199810
Копирование... OK
Ошибок не произошло
AccurateRip: сводка
Трек 1 нет в базе данных
Трек 2 нет в базе данных
Трек 3 нет в базе данных
Трек 4 нет в базе данных
Трек 5 нет в базе данных
Трек 6 нет в базе данных
Трек 7 нет в базе данных
Трек 8 нет в базе данных
Трек 9 нет в базе данных
Ни одного трека нет в базе AccurateRip
Конец отчёта
Рецензия
Если коротко, интересный и энергичный современный фри-джаз, очень рекомендую. Рип с оригинального диска, однако сканера у меня нет, потому и сканов нет
Приватный:
Нет (DHT включён)
Размер:
303.02 Мб (317,738,194 байт) » файлов: 4
Участники:
0 раздают, 0 качают (0 участников всего)
Внешние участники:
3 раздают, 1 качают (4 участников всего) [ Обновить ]
Есть вопросы - пишите личное сообщение пользователю M0p94ok.
00:19
38
Нет комментариев. Ваш будет первым!