Поиск

(Avant-Garde Jazz, Instrumental, Avant-folk, Classic, Experimental, Improvisation) Zeena Parkins - Pan-Acousticon - 1999, APE (image + .cue), lossless

(Avant-Garde Jazz, Instrumental, Avant-folk, Classic, Experimental, Improvisation) Zeena Parkins - Pan-Acousticon - 1999, APE (image + .cue), lossless
Треклист:
Zeena Parkins - Pan-Acousticon
Страна: U.S.A.
Жанр: Avant-Garde Jazz, Instrumental, Avant-folk, Сlassic, Experimental, Improvisation
Год выпуска: 1999
Формат: APE (image + .cue)
Битрейт аудио: lossless
Продолжительность: 52:06
Трэклист:
1 Intro (1:27)
2 Bowl Yr. Copper Hoop (2:44)
3 The 2 Infinites (4:39)
4 Solo (3:21)
5 Earshot (3:40)
6 D.I. 1 (4:02)
7 Damp Lilac (1:39)
8 D.I. 2 (2:05)
9 Duo (3:33)
10 Bels I (3:53)
11 Cavêre (4:03)
12 Organ of Corti (1:32)
13 Party Effect (1:16)
14 Sone (1:55)
15 D.I. 3 (3:51)
16 Balaton (3:18)
17 End (2:01)
18 Bels II (3:01)
Доп. информация:
Ikue Mori Design
Zeena Parkins Piano, Accordion, Producer, Electric Harp, Sampling, Main Performer
Jim Pugliese Percussion, Vibraphone
Kazunori Sugiyama Associate Producer
Allan Tucker Mastering
John Zorn Executive Producer
Joe Trump Drums (Snare),
Mark C. Photography, Concept
Mark Stewart Guitar, Daxophone, Cello,
Sara Parkins Violin
Margaret Parkins Cello
The Gangster Band Strings
Elliott Sharp Producer, Engineer
Результат трехлетней работы. Слушайте на здоровье.
Отчёт EAC:
 
скрытый текст
Exact Audio Copy V0.99 prebeta 3 from 28. July 2007
Отчёт EAC об извлечении, выполненном 30. марта 2008, 19:43
Zeena Parkins / Pan-Acousticon
Дисковод: _NEC CD-RW NR-9300A Adapter: 2 ID: 0
Режим чтения : Достоверность
Использование точного потока : Да
Отключение кэша аудио : Да
Использование указателей C2 : Нет
Коррекция смещения при чтении : 685
Способность читать области Lead-in и Lead-out : Да
Заполнение пропущенных сэмплов тишиной : Да
Удаление блоков с тишиной в начале и конце : Нет
При вычислениях CRC использовались нулевые сэмплы : Да
Интерфейс : Встроенный Win32-интерфейс для Win NT/2000
Выходной формат : Внутренние WAV-операции
Формат сэмплов : 44.100 Гц; 16 бит; стерео
TOC извлечённого CD
Трек | Старт | Длительность | Начальный сектор | Конечный сектор
---------------------------------------------------------------------
1 | 0:00.00 | 1:27.22 | 0 | 6546
2 | 1:27.22 | 2:44.28 | 6547 | 18874
3 | 4:11.50 | 4:39.42 | 18875 | 39841
4 | 8:51.17 | 3:21.10 | 39842 | 54926
5 | 12:12.27 | 3:40.30 | 54927 | 71456
6 | 15:52.57 | 4:02.10 | 71457 | 89616
7 | 19:54.67 | 1:39.00 | 89617 | 97041
8 | 21:33.67 | 2:05.03 | 97042 | 106419
9 | 23:38.70 | 3:33.57 | 106420 | 122451
10 | 27:12.52 | 3:53.00 | 122452 | 139926
11 | 31:05.52 | 4:03.48 | 139927 | 158199
12 | 35:09.25 | 1:32.12 | 158200 | 165111
13 | 36:41.37 | 1:16.23 | 165112 | 170834
14 | 37:57.60 | 1:55.70 | 170835 | 179529
15 | 39:53.55 | 3:51.25 | 179530 | 196879
16 | 43:45.05 | 3:18.65 | 196880 | 211794
17 | 47:03.70 | 2:01.05 | 211795 | 220874
18 | 49:05.00 | 3:01.17 | 220875 | 234466
Характеристики диапазона извлечения и сообщения об ошибках
Выбранный диапазон
Имя файла F:\m\music\1\Zeena Parkins - Pan-Acousticon\Zeena Parkins - Pan-Acousticon.wav
Подозрительная позиция 0:52:06
Пиковый уровень 100.0 %
Качество диапазона 99.9 %
CRC копии 2086F557
Копирование завершено
Были ошибки
Конец отчёта
Приватный:
Нет (DHT включён)
Размер:
247.58 Мб (259,610,744 байт) » файлов: 3
Участники:
0 раздают, 0 качают (0 участников всего)
Внешние участники:
1 раздают, 0 качают (1 участников всего) [ Обновить ]
Есть вопросы - пишите личное сообщение пользователю M0p94ok.
00:18
80
Нет комментариев. Ваш будет первым!