Поиск

(Modern Creative / Free Improvisation) Thomas Stronen - Parish (ECM 1870) - 2005, FLAC (image + .cue), lossless

(Modern Creative / Free Improvisation) Thomas Stronen - Parish (ECM 1870) - 2005, FLAC (image + .cue), lossless
Треклист:
Thomas Strønen - Parish (ECM 1870)

Страна: Norway
Жанр: Jazz
Год выпуска: 2005
Формат: FLAC (image + .cue)
Битрейт аудио: lossless
Продолжительность: 1:11:56
Источник: Собственный рип с оригинального диска
Fredrik Ljungkvist clarinet, tenor saxophone
Bobo Stenson piano
Mats Eilertsen double-bass
Thomas Strønen drums
Improvisation I
Suite For Trio I
Suite For Trio II
Suite For Trio III
Suite For Trio IV
Improvisastion II
Easta
Daddycation
Travel I
Quartz
Murring
Travel II
In motion
C moll maj
Improvisation III
Nu
Recorded April 2004
ECM 1870

 
EAC Report
Exact Audio Copy V0.99 prebeta 4 from 23. January 2008
EAC extraction logfile from 1. April 2008, 21:38
Thomas Strønen / Parish
Used drive : MATSHITADVD-RAM UJ-840S Adapter: 1 ID: 0
Read mode : Secure
Utilize accurate stream : Yes
Defeat audio cache : Yes
Make use of C2 pointers : No
Read offset correction : 102
Overread into Lead-In and Lead-Out : No
Fill up missing offset samples with silence : Yes
Delete leading and trailing silent blocks : No
Null samples used in CRC calculations : No
Used interface : Installed external ASPI interface
Used output format : User Defined Encoder
Selected bitrate : 1024 kBit/s
Quality : High
Add ID3 tag : No
Command line compressor : C:\Program Files\Exact Audio Copy\FLAC\FLAC.EXE
Additional command line options : -6 -V -T "ARTIST=%a" -T "TITLE=%t" -T "ALBUM=%g" -T "DATE=%y" -T "TRACKNUMBER=%n" -T "GENRE=%m" -T "COMMENT=%e" %s -o %d
TOC of the extracted CD
Track | Start | Length | Start sector | End sector
---------------------------------------------------------
1 | 0:00.00 | 2:11.05 | 0 | 9829
2 | 2:11.05 | 5:37.30 | 9830 | 35134
3 | 7:48.35 | 4:47.42 | 35135 | 56701
4 | 12:36.02 | 3:12.30 | 56702 | 71131
5 | 15:48.32 | 3:35.23 | 71132 | 87279
6 | 19:23.55 | 2:21.67 | 87280 | 97921
7 | 21:45.47 | 7:39.05 | 97922 | 132351
8 | 29:24.52 | 7:30.73 | 132352 | 166174
9 | 36:55.50 | 1:25.47 | 166175 | 172596
10 | 38:21.22 | 6:46.35 | 172597 | 203081
11 | 45:07.57 | 7:21.35 | 203082 | 236191
12 | 52:29.17 | 1:45.18 | 236192 | 244084
13 | 54:14.35 | 5:34.42 | 244085 | 269176
14 | 59:49.02 | 5:56.13 | 269177 | 295889
15 | 65:45.15 | 4:25.30 | 295890 | 315794
16 | 70:10.45 | 1:45.52 | 315795 | 323721
Range status and errors
Selected range
Filename F:\u\ecm\Thomas Strønen - Parish.wav
Peak level 100.0 %
Range quality 100.0 %
Copy CRC 3618BA51
Copy OK
No errors occurred
AccurateRip summary
Track 1 not present in database
Track 2 not present in database
Track 3 not present in database
Track 4 not present in database
Track 5 not present in database
Track 6 not present in database
Track 7 not present in database
Track 8 not present in database
Track 9 not present in database
Track 10 not present in database
Track 11 not present in database
Track 12 not present in database
Track 13 not present in database
Track 14 not present in database
Track 15 not present in database
Track 16 not present in database
None of the tracks are present in the AccurateRip database
End of status report
Приватный:
Нет (DHT включён)
Размер:
284.51 Мб (298,325,829 байт) » файлов: 6
Участники:
0 раздают, 0 качают (0 участников всего)
Внешние участники:
5 раздают, 1 качают (6 участников всего) [ Обновить ]
Есть вопросы - пишите личное сообщение пользователю M0p94ok.
00:19
63
Нет комментариев. Ваш будет первым!