Вы используете незарегистрированную версию компонента "Вкладки"!

Поиск

(Free Jazz) The Nick Mazzarella Trio - This Is Only A Test: Live At The Hungry Brain (feat. Anton Hatwich, Frank Rosaly) - 2011, FLAC (tracks+.cue), lossless

(Free Jazz) The Nick Mazzarella Trio - This Is Only A Test: Live At The Hungry Brain (feat. Anton Hatwich, Frank Rosaly) - 2011, FLAC (tracks+.cue), lossless
Треклист:
The Nick Mazzarella Trio
This Is Only A Test: Live At The Hungry Brain
Жанр: Free Jazz
Год издания: 2011
Издатель (лейбл): SONICHLA RECORDS
Номер по каталогу: 885767883475
Страна: USA
Аудиокодек: FLAC (*.flac)
Тип рипа: tracks+.cue
Битрейт аудио: lossless
Продолжительность: 00:55:58
Источник (релизер): IndieEmoPunk
Наличие сканов в содержимом раздачи: нет
Треклист:
1. This is Only a Test
2. Do Not Disturb
3. Sundown
4. Newsprint
5. Clockwork
6. For Henry
7. Boarding Pass
8. A Memory for Faces
9. Circumstantialism
 
Лог создания рипа
X Lossless Decoder version 20130127 (142.3)
XLD extraction logfile from 2013-02-08 16:28:10 -0600
The Nick Mazzarella Trio / This is Only a Test: Live at the Hungry Brain
Used drive : OPTIARC DVD RW AD-5680H (revision 3AHB)
Media type : Pressed CD
Ripper mode : XLD Secure Ripper
Disable audio cache : OK for the drive with a cache less than 1375KiB
Make use of C2 pointers : NO
Read offset correction : 48
Max retry count : 100
Gap status : Analyzed, Appended
TOC of the extracted CD
Track | Start | Length | Start sector | End sector
---------------------------------------------------------
1 | 00:00:00 | 07:16:22 | 0 | 32721
2 | 07:16:22 | 05:53:39 | 32722 | 59235
3 | 13:09:61 | 04:12:61 | 59236 | 78196
4 | 17:22:47 | 05:36:24 | 78197 | 103420
5 | 22:58:71 | 07:38:15 | 103421 | 137785
6 | 30:37:11 | 06:23:41 | 137786 | 166551
7 | 37:00:52 | 07:01:72 | 166552 | 198198
8 | 44:02:49 | 05:00:71 | 198199 | 220769
9 | 49:03:45 | 06:52:32 | 220770 | 251701
AccurateRip Summary
Disc not found in AccurateRip DB.
All Tracks
Album gain : -6.18 dB
Peak : 1.000000
Statistics
Read error : 0
Jitter error (maybe fixed) : 0
Retry sector count : 0
Damaged sector count : 0
Track 01
Filename : /Volumes/My Book 4TB/What.cd/The Nick Mazzarella Trio - This Is Only A Test- Live At The Hungry Brain (2011) - Flac/01 - This is Only a Test.flac
Pre-gap length : 00:02:00
Track gain : -7.00 dB
Peak : 1.000000
CRC32 hash (test run) : 41EF5291
CRC32 hash : 41EF5291
CRC32 hash (skip zero) : 7548FFDE
AccurateRip v1 signature : 67897DE9
AccurateRip v2 signature : D4B6A29C
->Track not present in AccurateRip database.
Statistics
Read error : 0
Jitter error (maybe fixed) : 0
Retry sector count : 0
Damaged sector count : 0
Track 02
Filename : /Volumes/My Book 4TB/What.cd/The Nick Mazzarella Trio - This Is Only A Test- Live At The Hungry Brain (2011) - Flac/02 - Do Not Disturb.flac
Track gain : -5.00 dB
Peak : 1.000000
CRC32 hash (test run) : BED0BA68
CRC32 hash : BED0BA68
CRC32 hash (skip zero) : 803B96B7
AccurateRip v1 signature : CE3FD4B7
AccurateRip v2 signature : AE04D8DA
->Track not present in AccurateRip database.
Statistics
Read error : 0
Jitter error (maybe fixed) : 0
Retry sector count : 0
Damaged sector count : 0
Track 03
Filename : /Volumes/My Book 4TB/What.cd/The Nick Mazzarella Trio - This Is Only A Test- Live At The Hungry Brain (2011) - Flac/03 - Sundown.flac
Track gain : -6.15 dB
Peak : 1.000000
CRC32 hash (test run) : C1F1D53E
CRC32 hash : C1F1D53E
CRC32 hash (skip zero) : AB0C05C4
AccurateRip v1 signature : 3D40B9CB
AccurateRip v2 signature : 9DCDA389
->Track not present in AccurateRip database.
Statistics
Read error : 0
Jitter error (maybe fixed) : 0
Retry sector count : 0
Damaged sector count : 0
Track 04
Filename : /Volumes/My Book 4TB/What.cd/The Nick Mazzarella Trio - This Is Only A Test- Live At The Hungry Brain (2011) - Flac/04 - Newsprint.flac
Track gain : -5.93 dB
Peak : 1.000000
CRC32 hash (test run) : B2FCBF23
CRC32 hash : B2FCBF23
CRC32 hash (skip zero) : E511D407
AccurateRip v1 signature : 62571EE0
AccurateRip v2 signature : 3586AFFD
->Track not present in AccurateRip database.
Statistics
Read error : 0
Jitter error (maybe fixed) : 0
Retry sector count : 0
Damaged sector count : 0
Track 05
Filename : /Volumes/My Book 4TB/What.cd/The Nick Mazzarella Trio - This Is Only A Test- Live At The Hungry Brain (2011) - Flac/05 - Clockwork.flac
Track gain : -5.32 dB
Peak : 1.000000
CRC32 hash (test run) : AAC55577
CRC32 hash : AAC55577
CRC32 hash (skip zero) : E73D0264
AccurateRip v1 signature : 6C802BD8
AccurateRip v2 signature : 3C35C4D3
->Track not present in AccurateRip database.
Statistics
Read error : 0
Jitter error (maybe fixed) : 0
Retry sector count : 0
Damaged sector count : 0
Track 06
Filename : /Volumes/My Book 4TB/What.cd/The Nick Mazzarella Trio - This Is Only A Test- Live At The Hungry Brain (2011) - Flac/06 - For Henry.flac
Track gain : -6.03 dB
Peak : 0.999969
CRC32 hash (test run) : 8F613094
CRC32 hash : 8F613094
CRC32 hash (skip zero) : 8E7F0F54
AccurateRip v1 signature : 3A30D824
AccurateRip v2 signature : 74968C75
->Track not present in AccurateRip database.
Statistics
Read error : 0
Jitter error (maybe fixed) : 0
Retry sector count : 0
Damaged sector count : 0
Track 07
Filename : /Volumes/My Book 4TB/What.cd/The Nick Mazzarella Trio - This Is Only A Test- Live At The Hungry Brain (2011) - Flac/07 - Boarding Pass.flac
Track gain : -6.89 dB
Peak : 1.000000
CRC32 hash (test run) : 482969A2
CRC32 hash : 482969A2
CRC32 hash (skip zero) : 318567A7
AccurateRip v1 signature : 8CDF885B
AccurateRip v2 signature : 9B529CCC
->Track not present in AccurateRip database.
Statistics
Read error : 0
Jitter error (maybe fixed) : 0
Retry sector count : 0
Damaged sector count : 0
Track 08
Filename : /Volumes/My Book 4TB/What.cd/The Nick Mazzarella Trio - This Is Only A Test- Live At The Hungry Brain (2011) - Flac/08 - A Memory for Faces.flac
Track gain : -4.42 dB
Peak : 0.825500
CRC32 hash (test run) : 35F5B435
CRC32 hash : 35F5B435
CRC32 hash (skip zero) : 15EBE61D
AccurateRip v1 signature : 4B567CB0
AccurateRip v2 signature : 016D34FF
->Track not present in AccurateRip database.
Statistics
Read error : 0
Jitter error (maybe fixed) : 0
Retry sector count : 0
Damaged sector count : 0
Track 09
Filename : /Volumes/My Book 4TB/What.cd/The Nick Mazzarella Trio - This Is Only A Test- Live At The Hungry Brain (2011) - Flac/09 - Circumstantialism.flac
Track gain : -6.37 dB
Peak : 0.976471
CRC32 hash (test run) : 41D5BE54
CRC32 hash : 41D5BE54
CRC32 hash (skip zero) : D598FF3F
AccurateRip v1 signature : 4C29D787
AccurateRip v2 signature : 4AAFBD7E
->Track not present in AccurateRip database.
Statistics
Read error : 0
Jitter error (maybe fixed) : 0
Retry sector count : 0
Damaged sector count : 0
No errors occurred
End of status report
 
Содержание индексной карты (.CUE)
TITLE "This is Only a Test: Live at the Hungry Brain"
PERFORMER "The Nick Mazzarella Trio"
REM GENRE "Jazz"
REM DATE "2011"
REM DISCNUMBER 1
REM TOTALDISCS 1
REM DISCID 780D1C09
REM REPLAYGAIN_ALBUM_GAIN -6.18 dB
REM REPLAYGAIN_ALBUM_PEAK 1.000000
FILE "01 - This is Only a Test.flac" WAVE
TRACK 01 AUDIO
TITLE "This is Only a Test"
FLAGS DCP
REM REPLAYGAIN_TRACK_GAIN -7.00 dB
REM REPLAYGAIN_TRACK_PEAK 1.000000
INDEX 01 00:00:00
FILE "02 - Do Not Disturb.flac" WAVE
TRACK 02 AUDIO
TITLE "Do Not Disturb"
FLAGS DCP
REM REPLAYGAIN_TRACK_GAIN -5.00 dB
REM REPLAYGAIN_TRACK_PEAK 1.000000
INDEX 01 00:00:00
FILE "03 - Sundown.flac" WAVE
TRACK 03 AUDIO
TITLE "Sundown"
FLAGS DCP
REM REPLAYGAIN_TRACK_GAIN -6.15 dB
REM REPLAYGAIN_TRACK_PEAK 1.000000
INDEX 01 00:00:00
FILE "04 - Newsprint.flac" WAVE
TRACK 04 AUDIO
TITLE "Newsprint"
FLAGS DCP
REM REPLAYGAIN_TRACK_GAIN -5.93 dB
REM REPLAYGAIN_TRACK_PEAK 1.000000
INDEX 01 00:00:00
FILE "05 - Clockwork.flac" WAVE
TRACK 05 AUDIO
TITLE "Clockwork"
FLAGS DCP
REM REPLAYGAIN_TRACK_GAIN -5.32 dB
REM REPLAYGAIN_TRACK_PEAK 1.000000
INDEX 01 00:00:00
FILE "06 - For Henry.flac" WAVE
TRACK 06 AUDIO
TITLE "For Henry"
FLAGS DCP
REM REPLAYGAIN_TRACK_GAIN -6.03 dB
REM REPLAYGAIN_TRACK_PEAK 0.999969
INDEX 01 00:00:00
FILE "07 - Boarding Pass.flac" WAVE
TRACK 07 AUDIO
TITLE "Boarding Pass"
FLAGS DCP
REM REPLAYGAIN_TRACK_GAIN -6.89 dB
REM REPLAYGAIN_TRACK_PEAK 1.000000
INDEX 01 00:00:00
FILE "08 - A Memory for Faces.flac" WAVE
TRACK 08 AUDIO
TITLE "A Memory for Faces"
FLAGS DCP
REM REPLAYGAIN_TRACK_GAIN -4.42 dB
REM REPLAYGAIN_TRACK_PEAK 0.825500
INDEX 01 00:00:00
FILE "09 - Circumstantialism.flac" WAVE
TRACK 09 AUDIO
TITLE "Circumstantialism"
FLAGS DCP
REM REPLAYGAIN_TRACK_GAIN -6.37 dB
REM REPLAYGAIN_TRACK_PEAK 0.976471
INDEX 01 00:00:00
 
Об исполнителе (группе)
The Nick Mazzarella Trio (formed in 2008) features Chicago-based musicians Nick Mazzarella (alto saxophone), Anton Hatwich (bass), and Frank Rosaly (drums). The project is dedicated to exploring free jazz, improvisation, and the textural and interactive possibilities of the saxophone trio setting, while developing a repertoire of Mazzarella's original compositions. One of the most active working bands in the Chicago improvised music scene, the trio regularly performs at such venues as the Hungry Brain, the Hideout, Elastic, Skylark, Heaven Gallery, and the Whistler. nickmazzarella.com
 
Об альбоме (сборнике)
It's hard to listen This Is Only a Test, the new live album by alto saxophonist Nick Mazzarella, and not think of Ornette Coleman. The opening lick of the title track sounds suspiciously like the opening lick from Coleman's "The Fifth of Beethoven," cut 41 years ago with his classic quartet, and Mazzarella, 27, doesn't deny the influence. "Ornette is like a primary source," he says. "He planted his flag on something very fundamental, like Monk did, and it's hard to get close to the territory he staked out without becoming overshadowed by or raising the ghost of the original man."
Listen to the whole album, though, and it becomes clear that Mazzarella—whose excellent trio with bassist Anton Hatwich and drummer Frank Rosaly recorded the album live at the Hungry Brain last May—is doing much more than evoking Coleman. He's been listening to jazz since he was ten, beginning with classics from his father's collection (Louis Armstrong, Duke Ellington, Miles Davis, Charlie Parker) and progressing to John Coltrane, particularly Newport '63, in high school. "That record really changed things for me," he says. "It gave me a palpable sense of what my instrument could do and what a human being could express through improvisation." The Woodridge native didn't fall for Coleman till he was earning his bachelor's in music at DePaul.
He graduated in 2006, then returned the following year for a master's, by which time he was a regular at concerts presented by Umbrella Music. Soon he enlisted Hatwich and Rosaly, key figures in that community, to play in his trio; on This Is Only a Test, the group's second album together, the two of them keep a tight rein on the songs, maintaining a lithe, crisp drive. Many of Mazzarella's compositions borrow Coleman's ebullient, jaunty melodicism, but he often changes the mood when he takes an extended solo—his dark, visceral phrasing and strident tone recall fire breathers like Pharoah Sanders and Albert Ayler.
When Mazzarella isn't playing a horn, he's often fixing one. He apprentices at a shop in Downers Grove called BandSource, repairing reed and brass instruments, and he says he once did some emergency work on Josh Berman's cornet in the back of the Hungry Brain. As a sideman Mazzarella plays with Frank Rosaly's Green and Gold, a band dedicated to the music of Prince Lasha and Sonny Simmons, and in August he played in Rob Mazurek's Exploding Star Orchestra for the group's Whistler residency.
by Peter Margasak
 
Состав
Nick Mazzarella, alto saxophone & compositions
Anton Hatwich, bass
Frank Rosaly, drums
Any questions -> support@pro-jazz.com. По всем вопросам пишите -> support@pro-jazz.com
10:28
146
Нет комментариев. Ваш будет первым!