Вы используете незарегистрированную версию компонента "Вкладки"!

Поиск

(Avant-Garde Jazz, Big Band) The Vinny Golia Large Ensemble - Commemoration (2CD) - 1994, FLAC (tracks+.cue), lossless

(Avant-Garde Jazz, Big Band) The Vinny Golia Large Ensemble - Commemoration (2CD) - 1994, FLAC (tracks+.cue), lossless
Треклист:
The Vinny Golia Large Ensemble / Commemoration (2CD)
Жанр: Avant-Garde Jazz, Big Band
Страна-производитель диска: US
Год издания: 1994
Издатель (лейбл): 9 Winds
Номер по каталогу: NWCD 0150/160
Страна: US
Аудиокодек: FLAC (*.flac)
Тип рипа: tracks+.cue
Битрейт аудио: lossless
Продолжительность: 62:40 + 56:35
Источник (релизер): свой фирменный диск
Наличие сканов в содержимом раздачи:
Треклист:
 
CD1
1-1 Swift Are The Wings Of Love 2:39
1-2 Change Of Direction 13:55
1-3 Forest 7:29
1-4 Mahlow 14:05
1-5 In A Manner Of Speaking 8:42
1-6 Lies Of Deception 15:44
 
CD2
2-1 Menhir 17:42
2-2 For Of Something 9:34
2-3 Tumulus Or Griffin 15:47
2-4 Interlude One 7:33
2-5 Goleom 5:33
 
Лог создания рипа

 
CD1
Exact Audio Copy V1.0 beta 3 from 29. August 2011
EAC extraction logfile from 29. March 2013, 20:31
The Vinny Golia Large Ensemble / Commemoration CD1
Used drive : PIONEER DVD-RW DVR-115D Adapter: 0 ID: 0
Read mode : Secure
Utilize accurate stream : Yes
Defeat audio cache : Yes
Make use of C2 pointers : No
Read offset correction : 48
Overread into Lead-In and Lead-Out : No
Fill up missing offset samples with silence : Yes
Delete leading and trailing silent blocks : No
Null samples used in CRC calculations : Yes
Used interface : Installed external ASPI interface
Gap handling : Appended to previous track
Used output format : User Defined Encoder
Selected bitrate : 896 kBit/s
Quality : High
Add ID3 tag : No
Command line compressor : C:\Program Files\Exact Audio Copy\FLAC\FLAC.EXE
Additional command line options : -6 -V -T "ARTIST=%artist%" -T "TITLE=%title%" -T "ALBUM=%albumtitle%" -T "DATE=%year%" -T "TRACKNUMBER=%tracknr%" -T "GENRE=%genre%" -T "COMMENT=%comment%" -T "BAND=%albuminterpret%" -T "COMPOSER=%composer%" %haslyrics%--tag-from-file=LYRICS="%lyricsfile%"%haslyrics% -T "DISCNUMBER=%cdnumber%" -T "TOTALDISCS=%totalcds%" -T "TOTALTRACKS=%numtracks%" %hascover%--picture="%coverfile%"%hascover% %source% -o %dest%
TOC of the extracted CD
Track | Start | Length | Start sector | End sector
---------------------------------------------------------
1 | 0:00.00 | 2:39.65 | 0 | 11989
2 | 2:39.65 | 13:54.65 | 11990 | 74604
3 | 16:34.55 | 7:31.62 | 74605 | 108491
4 | 24:06.42 | 14:06.15 | 108492 | 171956
5 | 38:12.57 | 8:42.65 | 171957 | 211171
6 | 46:55.47 | 15:44.50 | 211172 | 282021
Track 1
Filename D:\zzz\01 - Swift Are The Wings Of Love.wav
Pre-gap length 0:00:02.00
Peak level 67.8 %
Extraction speed 4.0 X
Track quality 100.0 %
Test CRC 1D636C8A
Copy CRC 1D636C8A
Track not present in AccurateRip database
Copy OK
Track 2
Filename D:\zzz\02 - Change Of Direction.wav
Peak level 99.0 %
Extraction speed 5.7 X
Track quality 100.0 %
Test CRC B9693953
Copy CRC B9693953
Track not present in AccurateRip database
Copy OK
Track 3
Filename D:\zzz\03 - Forest.wav
Peak level 99.0 %
Extraction speed 6.1 X
Track quality 99.9 %
Test CRC F053AA1A
Copy CRC F053AA1A
Track not present in AccurateRip database
Copy OK
Track 4
Filename D:\zzz\04 - Mahlow.wav
Pre-gap length 0:00:01.50
Peak level 99.0 %
Extraction speed 7.5 X
Track quality 100.0 %
Test CRC 3E2ED022
Copy CRC 3E2ED022
Track not present in AccurateRip database
Copy OK
Track 5
Filename D:\zzz\05 - In A Manner Of Speaking.wav
Peak level 99.0 %
Extraction speed 7.6 X
Track quality 99.9 %
Test CRC 84B393BD
Copy CRC 84B393BD
Track not present in AccurateRip database
Copy OK
Track 6
Filename D:\zzz\06 - Lies Of Deception.wav
Peak level 99.0 %
Extraction speed 9.0 X
Track quality 100.0 %
Test CRC 0CEDD29E
Copy CRC 0CEDD29E
Track not present in AccurateRip database
Copy OK
None of the tracks are present in the AccurateRip database
No errors occurred
End of status report
==== Log checksum C4B10DF85B6EB501155F25ABC1C9B91902169065F229C2ABE553001D188A4F46 ====
 
CD2
Exact Audio Copy V1.0 beta 3 from 29. August 2011
EAC extraction logfile from 29. March 2013, 20:51
The Vinny Golia Large Ensemble / Commemoration CD2
Used drive : PIONEER DVD-RW DVR-115D Adapter: 0 ID: 0
Read mode : Secure
Utilize accurate stream : Yes
Defeat audio cache : Yes
Make use of C2 pointers : No
Read offset correction : 48
Overread into Lead-In and Lead-Out : No
Fill up missing offset samples with silence : Yes
Delete leading and trailing silent blocks : No
Null samples used in CRC calculations : Yes
Used interface : Installed external ASPI interface
Gap handling : Appended to previous track
Used output format : User Defined Encoder
Selected bitrate : 896 kBit/s
Quality : High
Add ID3 tag : No
Command line compressor : C:\Program Files\Exact Audio Copy\FLAC\FLAC.EXE
Additional command line options : -6 -V -T "ARTIST=%artist%" -T "TITLE=%title%" -T "ALBUM=%albumtitle%" -T "DATE=%year%" -T "TRACKNUMBER=%tracknr%" -T "GENRE=%genre%" -T "COMMENT=%comment%" -T "BAND=%albuminterpret%" -T "COMPOSER=%composer%" %haslyrics%--tag-from-file=LYRICS="%lyricsfile%"%haslyrics% -T "DISCNUMBER=%cdnumber%" -T "TOTALDISCS=%totalcds%" -T "TOTALTRACKS=%numtracks%" %hascover%--picture="%coverfile%"%hascover% %source% -o %dest%
TOC of the extracted CD
Track | Start | Length | Start sector | End sector
---------------------------------------------------------
1 | 0:00.00 | 17:44.58 | 0 | 79857
2 | 17:44.58 | 9:34.70 | 79858 | 122977
3 | 27:19.53 | 15:47.57 | 122978 | 194059
4 | 43:07.35 | 7:33.53 | 194060 | 228087
5 | 50:41.13 | 5:54.02 | 228088 | 254639
Track 1
Filename D:\zzz\01 - Menhir.wav
Pre-gap length 0:00:02.00
Peak level 100.0 %
Extraction speed 5.7 X
Track quality 100.0 %
Test CRC 1FEEED93
Copy CRC 1FEEED93
Track not present in AccurateRip database
Copy OK
Track 2
Filename D:\zzz\02 - For Of Something.wav
Pre-gap length 0:00:01.55
Peak level 99.0 %
Extraction speed 6.8 X
Track quality 100.0 %
Test CRC 34EAB04A
Copy CRC 34EAB04A
Track not present in AccurateRip database
Copy OK
Track 3
Filename D:\zzz\03 - Tumulus Or Griffin.wav
Peak level 99.0 %
Extraction speed 7.8 X
Track quality 100.0 %
Test CRC 4617F7CF
Copy CRC 4617F7CF
Track not present in AccurateRip database
Copy OK
Track 4
Filename D:\zzz\04 - Interlude One.wav
Peak level 85.8 %
Extraction speed 8.2 X
Track quality 100.0 %
Test CRC D46FB81B
Copy CRC D46FB81B
Track not present in AccurateRip database
Copy OK
Track 5
Filename D:\zzz\05 - Goleom.wav
Peak level 99.0 %
Extraction speed 8.5 X
Track quality 100.0 %
Test CRC 04A81945
Copy CRC 04A81945
Track not present in AccurateRip database
Copy OK
None of the tracks are present in the AccurateRip database
No errors occurred
End of status report
==== Log checksum 484BAB262FDFFC2A4BB5FBB4552E4F7BA905635DA0ADBE1FD03672AC7C304758 ====
 
Содержание индексной карты (.CUE)

 
CD1
REM GENRE Avantgarde
REM DATE 1994
REM DISCID 560EB006
REM COMMENT "ExactAudioCopy v1.0b3"
PERFORMER "The Vinny Golia Large Ensemble"
TITLE "Commemoration CD1"
FILE "01 - Swift Are The Wings Of Love.wav" WAVE
TRACK 01 AUDIO
TITLE "Swift Are The Wings Of Love"
PERFORMER "The Vinny Golia Large Ensemble"
INDEX 01 00:00:00
FILE "02 - Change Of Direction.wav" WAVE
TRACK 02 AUDIO
TITLE "Change Of Direction"
PERFORMER "The Vinny Golia Large Ensemble"
INDEX 01 00:00:00
FILE "03 - Forest.wav" WAVE
TRACK 03 AUDIO
TITLE "Forest"
PERFORMER "The Vinny Golia Large Ensemble"
INDEX 01 00:00:00
TRACK 04 AUDIO
TITLE "Mahlow"
PERFORMER "The Vinny Golia Large Ensemble"
INDEX 00 07:30:12
FILE "04 - Mahlow.wav" WAVE
INDEX 01 00:00:00
FILE "05 - In A Manner Of Speaking.wav" WAVE
TRACK 05 AUDIO
TITLE "In A Manner Of Speaking"
PERFORMER "The Vinny Golia Large Ensemble"
INDEX 01 00:00:00
FILE "06 - Lies Of Deception.wav" WAVE
TRACK 06 AUDIO
TITLE "Lies Of Deception"
PERFORMER "The Vinny Golia Large Ensemble"
INDEX 01 00:00:00
 
CD2
REM GENRE Avantgarde
REM DATE 1994
REM DISCID 3D0D4305
REM COMMENT "ExactAudioCopy v1.0b3"
PERFORMER "The Vinny Golia Large Ensemble"
TITLE "Commemoration CD2"
FILE "01 - Menhir.wav" WAVE
TRACK 01 AUDIO
TITLE "Menhir"
PERFORMER "The Vinny Golia Large Ensemble"
INDEX 01 00:00:00
TRACK 02 AUDIO
TITLE "For Of Something"
PERFORMER "The Vinny Golia Large Ensemble"
INDEX 00 17:43:03
FILE "02 - For Of Something.wav" WAVE
INDEX 01 00:00:00
FILE "03 - Tumulus Or Griffin.wav" WAVE
TRACK 03 AUDIO
TITLE "Tumulus Or Griffin"
PERFORMER "The Vinny Golia Large Ensemble"
INDEX 01 00:00:00
FILE "04 - Interlude One.wav" WAVE
TRACK 04 AUDIO
TITLE "Interlude One"
PERFORMER "The Vinny Golia Large Ensemble"
INDEX 01 00:00:00
FILE "05 - Goleom.wav" WAVE
TRACK 05 AUDIO
TITLE "Goleom"
PERFORMER "The Vinny Golia Large Ensemble"
INDEX 01 00:00:00
 
Лог проверки качества
d:\>d:\aucdtect -d/-m0 d:\zzz\*.wav
auCDtect: CD records authenticity detector, version 0.8.2
Copyright (c) 2004 Oleg Berngardt. All rights reserved.
Copyright (c) 2004 Alexander Djourik. All rights reserved.
------------------------------------------------------------
Processing file: [01. Menhir.wav]
------------------------------------------------------------
This track looks like CDDA with probability 100%
------------------------------------------------------------
Processing file: [01. Swift Are The Wings Of Love.wav]
------------------------------------------------------------
This track looks like CDDA with probability 100%
------------------------------------------------------------
Processing file: [02. Change Of Direction.wav]
------------------------------------------------------------
This track looks like CDDA with probability 99%
------------------------------------------------------------
Processing file: [02. For Of Something.wav]
------------------------------------------------------------
This track looks like CDDA with probability 100%
------------------------------------------------------------
Processing file: [03. Forest.wav]
------------------------------------------------------------
This track looks like CDDA with probability 86%
------------------------------------------------------------
Processing file: [03. Tumulus Or Griffin.wav]
------------------------------------------------------------
This track looks like CDDA with probability 99%
------------------------------------------------------------
Processing file: [04. Interlude One.wav]
------------------------------------------------------------
This track looks like CDDA with probability 100%
------------------------------------------------------------
Processing file: [04. Mahlow.wav]
------------------------------------------------------------
This track looks like CDDA with probability 100%
------------------------------------------------------------
Processing file: [05. Goleom.wav]
------------------------------------------------------------
This track looks like CDDA with probability 99%
------------------------------------------------------------
Processing file: [05. In A Manner Of Speaking.wav]
------------------------------------------------------------
This track looks like CDDA with probability 100%
------------------------------------------------------------
Processing file: [06. Lies Of Deception.wav]
------------------------------------------------------------
This track looks like CDDA with probability 100%
------------------------------------------------------------
Final Conclusion:
------------------------------------------------------------
These tracks looks like CDDA with probability 100%
Доп. информация:
 
Album Info
Tracks 1-1 to 2-1, 2-5 recorded Friday October 11, 1991, Harbor College Music Recital Hall, San Pedro, California
Tracks 2-2 to 2-4 recorded Saturday April 11, 1992, Gascon Institute, Culver City, California
John Carter was a very good friend of mine. We peformed quite often in each other's ensembles, in a wide variety of settings from duos to The Large Ensemble (of which John was an original member). The music on these discs is part of a larger suite "One Moment Of Truth" which I dedicated to John's memory. I have included two pieces "In A Manner Of Speaking" (for Dave Holland) and "Tumulus Or Griffin" (for Grover Mooney), and even though these sections are dedicated to these musicians the music is still part of the larger suite. - Vinny Golia
 
Состав
Cello – Greg Adamson (tracks: 1-1 to 2-1, 2-5), Jonathan Golove (tracks: 2-2 to 2-4), Matt Cooker (tracks: 1-1 to 2-1, 2-5)
Cello [Electric] – Dion Sorell (tracks: 2-2 to 2-4)
Chimes, Timpani, Vibraphone, Marimba, Conductor – David Johnson
Clarinet [Bb], Bass Clarinet – David Ocker
Conductor – Stephanie Henry
Double Bass – Joel Hamilton, Ken Filiano
Drums, Percussion – Alex Cline
Flute [C], Alto Saxophone – Steve Fowler
Flute [C], Flute [Alto], Soprano Saxophone, Tenor Saxophone – Bill Plake
Keyboards, Piano, Conductor – Wayne Peet
Marimba, Timpani, Bells [Orchestra], Percussion [Hand] – Brad Dutz
Piccolo Flute, Flute – Emily Hey (tracks: 2-2 to 2-4)
Piccolo Flute, Flute [C], Clarinet [Bb], Alto Saxophone – Kim Richmond
Piccolo Flute, Flute [C], Flute [Alto], Flute [Bass], Sopranino Saxophone, Soprano Saxophone, Baritone Saxophone, Bass Saxophone, Clarinet [Eb], Clarinet [A], Alto Clarinet, Contra-alto Clarinet – Vinny Golia
Trombone – Bruce Fowler, George McMullen, Mike Vlatkovich
Trombone [Bass] – Phil Teele
Trumpet, Flugelhorn – John Fumo, Marissa Benidict (tracks: 1-1 to 2-1, 2-5), Mark Underwood, Rob Blakeslee (tracks: 2-2 to 2-4)
Tuba – William Roper
Violin – Harry Scorzo (tracks: 1-1 to 2-1, 2-5), Jef Gauthier (tracks: 2-2 to 2-4)
Any questions -> support@pro-jazz.com. По всем вопросам пишите -> support@pro-jazz.com
10:27
173
Нет комментариев. Ваш будет первым!