Вы используете незарегистрированную версию компонента "Вкладки"!

Поиск

(Free Improvisation) Calling Signals (Frode Gjerstad, Eivin One Pedersen, Nick Stephens, Paal Nilssen Love) - Dreams In Dreams - 2005, FLAC (image+.cue), lossless

(Free Improvisation) Calling Signals (Frode Gjerstad, Eivin One Pedersen, Nick Stephens, Paal Nilssen Love) - Dreams In Dreams - 2005, FLAC (image+.cue), lossless
Треклист:
Calling Signals / Dreams In Dreams
Жанр: Free Improvisation
Страна-производитель диска: UK
Год издания: 2005
Издатель (лейбл): FMR Records
Номер по каталогу: FMRCD177-i0805
Аудиокодек: FLAC (*.flac)
Тип рипа: image+.cue
Битрейт аудио: lossless
Продолжительность: 54:17
Источник (релизер): cd
Наличие сканов в содержимом раздачи: нет
Треклист:
1 Dreams 13:21
2 Dreams In 10:24
3 Dreams In Dreams 8:04
4 Dreams In Dreams In 8:39
5 Dreams In Dreams In Dreams 13:31
 
Лог создания рипа
Exact Audio Copy V1.0 beta 2 from 29. April 2011
EAC extraction logfile from 29. March 2013, 10:51
Calling Signals / Dreams In Dreams
Used drive : Optiarc DVD RW AD-7170A Adapter: 0 ID: 0
Read mode : Secure
Utilize accurate stream : Yes
Defeat audio cache : Yes
Make use of C2 pointers : No
Read offset correction : 48
Overread into Lead-In and Lead-Out : No
Fill up missing offset samples with silence : Yes
Delete leading and trailing silent blocks : No
Null samples used in CRC calculations : Yes
Used interface : Native Win32 interface for Win NT & 2000
Used output format : User Defined Encoder
Selected bitrate : 320 kBit/s
Quality : High
Add ID3 tag : No
Command line compressor : C:\Program Files\Exact Audio Copy\Flac\flac.exe
Additional command line options : -V -8 -T "Date=%year%" -T "Genre=%genre%" %source%
TOC of the extracted CD
Track | Start | Length | Start sector | End sector
---------------------------------------------------------
1 | 0:00.00 | 13:25.16 | 0 | 60390
2 | 13:25.16 | 10:28.72 | 60391 | 107562
3 | 23:54.13 | 8:08.11 | 107563 | 144173
4 | 32:02.24 | 8:43.45 | 144174 | 183443
5 | 40:45.69 | 13:31.27 | 183444 | 244295
Range status and errors
Selected range
Filename L:\ЕАС\Calling Signals - Dreams In Dreams.wav
Peak level 96.0 %
Extraction speed 1.9 X
Range quality 99.9 %
Test CRC 9C227AA0
Copy CRC 050FC781
Copy OK
No errors occurred
AccurateRip summary
Track 1 not present in database
Track 2 not present in database
Track 3 not present in database
Track 4 not present in database
Track 5 not present in database
None of the tracks are present in the AccurateRip database
End of status report
==== Log checksum EEACC61718DBF8F431551B507814D675001A3936698BEECE9F1CEAA67DC2DF96 ====
 
Содержание индексной карты (.CUE)
REM GENRE Jazz
REM DATE 2005
REM DISCID 400CB905
REM COMMENT "ExactAudioCopy v1.0b2"
PERFORMER "Calling Signals"
TITLE "Dreams In Dreams"
FILE "Calling Signals - Dreams In Dreams.flac" WAVE
TRACK 01 AUDIO
TITLE "Dreams"
PERFORMER "Calling Signals"
ISRC 000000000000
INDEX 01 00:00:00
TRACK 02 AUDIO
TITLE "Dreams In"
PERFORMER "Calling Signals"
ISRC 000000000000
INDEX 00 13:21:16
INDEX 01 13:25:16
TRACK 03 AUDIO
TITLE "Dreams In Dreams"
PERFORMER "Calling Signals"
ISRC 000000000000
INDEX 00 23:50:13
INDEX 01 23:54:13
TRACK 04 AUDIO
TITLE "Dreams In Dreams In"
PERFORMER "Calling Signals"
ISRC 000000000000
INDEX 00 31:58:24
INDEX 01 32:02:24
TRACK 05 AUDIO
TITLE "Dreams In Dreams In Dreams"
PERFORMER "Calling Signals"
ISRC 000000000000
INDEX 00 40:41:69
INDEX 01 40:45:69
Доп. информация: Recorded and mixed January 2005 in Stavanger
 
Состав
Accordion – Eivin One Pedersen
Clarinet [Clarinets] – Frode Gjerstad
Double Bass – Nick Stephens
Drums – Paal Nilssen Love
Any questions -> support@pro-jazz.com. По всем вопросам пишите -> support@pro-jazz.com
10:29
145
Нет комментариев. Ваш будет первым!