Вы используете незарегистрированную версию компонента "Вкладки"!

Поиск

(Avant-Garde, Contemporary Jazz) Bluiett Baritone Saxophone Group - Live at the Knitting Factory - 1998, FLAC (tracks+.cue), lossless

(Avant-Garde, Contemporary Jazz) Bluiett Baritone Saxophone Group - Live at the Knitting Factory - 1998, FLAC (tracks+.cue), lossless
Треклист:
Bluiett Baritone Saxophone Group / Live at the Knitting Factory
Жанр: Avant-Garde, Contemporary Jazz
Страна-производитель диска: U.S.A.
Год издания: 1998
Издатель (лейбл): Knitting Factory Records
Номер по каталогу: KFR 217
Аудиокодек: FLAC (*.flac)
Тип рипа: tracks+.cue
Битрейт аудио: lossless
Продолжительность: 1:07:32
Источник (релизер): Max Monteiro
Наличие сканов в содержимом раздачи: да
Треклист:
01. Opening Statement (Hamiet Bluiett) 0:48
02. Settagast Strut (Frank Lacy) 10:05
03. A’s Song (Coleridge Taylor-Perkins) 5:41
04. K.M.A. / Q.B. (Alex Harding, Ronnie Burrage) 5:34
05. Pit Stop (Hamiet Bluiett) 3:22
06. Discussion Amongst Friends (EJ Allen) 8:12
07. Lowdown Blues (Hamiet Bluiett) 11:26
08. Blunita (Hamiet Bluiett) 5:03
09. Revival (Sam Rivers) 7:17
10. Neck Bones (Hamiet Bluiett) 0:56
11. J.B.’s Groove (James Carter) 9:09
 
Лог создания рипа
Exact Audio Copy V1.0 beta 3 from 29. August 2011
EAC extraction logfile from 1. April 2013, 12:38
Bluiett Baritone Saxophone Group / Live at the Knitting Factory
Used drive : SlimtypeeNAU508 5 Adapter: 1 ID: 0
Read mode : Secure
Utilize accurate stream : Yes
Defeat audio cache : Yes
Make use of C2 pointers : No
Read offset correction : 6
Overread into Lead-In and Lead-Out : No
Fill up missing offset samples with silence : Yes
Delete leading and trailing silent blocks : No
Null samples used in CRC calculations : Yes
Used interface : Native Win32 interface for Win NT & 2000
Gap handling : Appended to previous track
Used output format : User Defined Encoder
Selected bitrate : 768 kBit/s
Quality : High
Add ID3 tag : No
Command line compressor : C:\Program Files (x86)\Exact Audio Copy\Flac\flac.exe
Additional command line options : -8 -V -T "ARTIST=%artist%" -T "TITLE=%title%" -T "ALBUM=%albumtitle%" -T "DATE=%year%" -T "TRACKNUMBER=%tracknr%" -T "GENRE=%genre%" -T "PERFORMER=%albuminterpret%" -T "COMPOSER=%composer%" %haslyrics%--tag-from-file=LYRICS="%lyricsfile%"%haslyrics% -T "ALBUMARTIST=%albumartist%" -T "DISCNUMBER=%cdnumber%" -T "TOTALDISCS=%totalcds%" -T "TOTALTRACKS=%numtracks%" -T "COMMENT=%comment%" %source% -o %dest%
TOC of the extracted CD
Track | Start | Length | Start sector | End sector
---------------------------------------------------------
1 | 0:00.00 | 0:47.52 | 0 | 3576
2 | 0:47.52 | 10:04.45 | 3577 | 48921
3 | 10:52.22 | 5:41.20 | 48922 | 74516
4 | 16:33.42 | 5:34.28 | 74517 | 99594
5 | 22:07.70 | 3:22.00 | 99595 | 114744
6 | 25:29.70 | 8:11.40 | 114745 | 151609
7 | 33:41.35 | 11:25.65 | 151610 | 203049
8 | 45:07.25 | 5:03.25 | 203050 | 225799
9 | 50:10.50 | 7:16.52 | 225800 | 258551
10 | 57:27.27 | 0:55.48 | 258552 | 262724
11 | 58:23.00 | 9:08.50 | 262725 | 303874
Track 1
Filename C:\EAC rips\01 - Opening Statement.wav
Pre-gap length 0:00:02.00
Peak level 62.1 %
Extraction speed 1.4 X
Track quality 100.0 %
Test CRC 571E3E3C
Copy CRC 571E3E3C
Track not present in AccurateRip database
Copy OK
Track 2
Filename C:\EAC rips\02 - Settagast Strut.wav
Pre-gap length 0:00:01.22
Peak level 100.0 %
Extraction speed 2.5 X
Track quality 99.9 %
Test CRC 7DD23BA5
Copy CRC 7DD23BA5
Track not present in AccurateRip database
Copy OK
Track 3
Filename C:\EAC rips\03 - A's Song.wav
Peak level 99.9 %
Extraction speed 2.6 X
Track quality 99.9 %
Test CRC 878EB8C8
Copy CRC 878EB8C8
Track not present in AccurateRip database
Copy OK
Track 4
Filename C:\EAC rips\04 - K.M.A. - Q.B..wav
Peak level 100.0 %
Extraction speed 3.3 X
Track quality 100.0 %
Test CRC 0E7B4902
Copy CRC 0E7B4902
Track not present in AccurateRip database
Copy OK
Track 5
Filename C:\EAC rips\05 - Pit Stop.wav
Peak level 100.0 %
Extraction speed 3.3 X
Track quality 100.0 %
Test CRC 34479116
Copy CRC 34479116
Track not present in AccurateRip database
Copy OK
Track 6
Filename C:\EAC rips\06 - Discussion Amongst Friends.wav
Peak level 99.9 %
Extraction speed 3.8 X
Track quality 100.0 %
Test CRC 8CB2C300
Copy CRC 8CB2C300
Track not present in AccurateRip database
Copy OK
Track 7
Filename C:\EAC rips\07 - Lowdown Blues.wav
Peak level 90.1 %
Extraction speed 3.9 X
Track quality 99.9 %
Test CRC E1868C1B
Copy CRC E1868C1B
Track not present in AccurateRip database
Copy OK
Track 8
Filename C:\EAC rips\08 - Blunita.wav
Peak level 56.2 %
Extraction speed 4.3 X
Track quality 100.0 %
Test CRC BF27C754
Copy CRC BF27C754
Track not present in AccurateRip database
Copy OK
Track 9
Filename C:\EAC rips\09 - Revival.wav
Peak level 100.0 %
Extraction speed 4.7 X
Track quality 100.0 %
Test CRC 31E4C347
Copy CRC 31E4C347
Track not present in AccurateRip database
Copy OK
Track 10
Filename C:\EAC rips\10 - Neck Bones.wav
Peak level 38.7 %
Extraction speed 3.0 X
Track quality 100.0 %
Test CRC 91540C51
Copy CRC 91540C51
Track not present in AccurateRip database
Copy OK
Track 11
Filename C:\EAC rips\11 - J.B.'s Groove.wav
Peak level 99.9 %
Extraction speed 5.0 X
Track quality 100.0 %
Test CRC 9EFAC5F5
Copy CRC 9EFAC5F5
Track not present in AccurateRip database
Copy OK
None of the tracks are present in the AccurateRip database
No errors occurred
End of status report
---- CUETools DB Plugin V2.1.4
[CTDB TOCID: x.Hcz6.H9uROxZGILXhsZgQ0yRQ-] disk not present in database
Submit result: x.Hcz6.H9uROxZGILXhsZgQ0yRQ- has been uploaded
==== Log checksum AD7C1F91218E923D6CDB99C3AF7F575BFC73201A49C0F894214D07056D01E070 ====
 
Содержание индексной карты (.CUE)
REM GENRE Jazz
REM DATE 1998
REM DISCID 8E0FD30B
REM COMMENT "ExactAudioCopy v1.0b3"
PERFORMER "Bluiett Baritone Saxophone Group"
TITLE "Live at the Knitting Factory"
FILE "01 - Opening Statement.wav" WAVE
TRACK 01 AUDIO
TITLE "Opening Statement"
PERFORMER "Bluiett Baritone Saxophone Group"
INDEX 01 00:00:00
TRACK 02 AUDIO
TITLE "Settagast Strut"
PERFORMER "Bluiett Baritone Saxophone Group"
INDEX 00 00:46:30
FILE "02 - Settagast Strut.wav" WAVE
INDEX 01 00:00:00
FILE "03 - A's Song.wav" WAVE
TRACK 03 AUDIO
TITLE "A's Song"
PERFORMER "Bluiett Baritone Saxophone Group"
INDEX 01 00:00:00
FILE "04 - K.M.A. - Q.B..wav" WAVE
TRACK 04 AUDIO
TITLE "K.M.A. / Q.B."
PERFORMER "Bluiett Baritone Saxophone Group"
INDEX 01 00:00:00
FILE "05 - Pit Stop.wav" WAVE
TRACK 05 AUDIO
TITLE "Pit Stop"
PERFORMER "Bluiett Baritone Saxophone Group"
INDEX 01 00:00:00
FILE "06 - Discussion Amongst Friends.wav" WAVE
TRACK 06 AUDIO
TITLE "Discussion Amongst Friends"
PERFORMER "Bluiett Baritone Saxophone Group"
INDEX 01 00:00:00
FILE "07 - Lowdown Blues.wav" WAVE
TRACK 07 AUDIO
TITLE "Lowdown Blues"
PERFORMER "Bluiett Baritone Saxophone Group"
INDEX 01 00:00:00
FILE "08 - Blunita.wav" WAVE
TRACK 08 AUDIO
TITLE "Blunita"
PERFORMER "Bluiett Baritone Saxophone Group"
INDEX 01 00:00:00
FILE "09 - Revival.wav" WAVE
TRACK 09 AUDIO
TITLE "Revival"
PERFORMER "Bluiett Baritone Saxophone Group"
INDEX 01 00:00:00
FILE "10 - Neck Bones.wav" WAVE
TRACK 10 AUDIO
TITLE "Neck Bones"
PERFORMER "Bluiett Baritone Saxophone Group"
INDEX 01 00:00:00
FILE "11 - J.B.'s Groove.wav" WAVE
TRACK 11 AUDIO
TITLE "J.B.'s Groove"
PERFORMER "Bluiett Baritone Saxophone Group"
INDEX 01 00:00:00
Доп. информация: Recorded live, June 1997 at the Knitting Factory.
 
Состав
Ronnie Burrage – Drums
Patience Higgins – Baritone Saxophoone
Hamiet Bluiett – Baritone Saxophone
Alex Harding – Baritone Saxophone
James Carter – Baritone Saxophone
Any questions -> support@pro-jazz.com. По всем вопросам пишите -> support@pro-jazz.com
10:29
141
Нет комментариев. Ваш будет первым!