Вы используете незарегистрированную версию компонента "Вкладки"!

Поиск

(Free Jazz) The Cosmosamatics (Sonny Simmons, Michael Marcus, Tarus Mateen, Andrew Cyrille) - Live at Banlieues Bleues - 2003, FLAC (image+.cue), lossless

(Free Jazz) The Cosmosamatics (Sonny Simmons, Michael Marcus, Tarus Mateen, Andrew Cyrille) - Live at Banlieues Bleues - 2003, FLAC (image+.cue), lossless
Треклист:
The Cosmosamatics / Live at Banlieues Bleues
Жанр: Free Jazz
Страна-производитель диска: France
Год издания диска: 2003
Издатель (лейбл): Bleu Regard
Номер по каталогу: 1963
Аудиокодек: FLAC (*.flac)
Тип рипа: image+.cue
Битрейт аудио: lossless
Продолжительность: 76:15
Источник (релизер): cd
Наличие сканов в содержимом раздачи: нет
Треклист:
1 Avant Garde Destruct 7:24
2 Quasar 20:02
3 12 Seasons of Love 8:01
4 Telergy 24:31
5 Aubade 6:15
 
Лог создания рипа
Exact Audio Copy V1.0 beta 2 from 29. April 2011
EAC extraction logfile from 20. December 2011, 7:57
The Cosmosamatics / Live at Banlieues Bleues
Used drive : Optiarc DVD RW AD-7170A Adapter: 0 ID: 0
Read mode : Secure
Utilize accurate stream : Yes
Defeat audio cache : Yes
Make use of C2 pointers : No
Read offset correction : 48
Overread into Lead-In and Lead-Out : No
Fill up missing offset samples with silence : Yes
Delete leading and trailing silent blocks : No
Null samples used in CRC calculations : Yes
Used interface : Native Win32 interface for Win NT & 2000
Used output format : User Defined Encoder
Selected bitrate : 320 kBit/s
Quality : High
Add ID3 tag : No
Command line compressor : C:\Program Files\Exact Audio Copy\Flac\flac.exe
Additional command line options : -V -8 -T "Date=%year%" -T "Genre=%genre%" %source%
TOC of the extracted CD
Track | Start | Length | Start sector | End sector
---------------------------------------------------------
1 | 0:00.00 | 7:24.65 | 0 | 33364
2 | 7:24.65 | 20:02.17 | 33365 | 123531
3 | 27:27.07 | 8:01.28 | 123532 | 159634
4 | 35:28.35 | 24:31.41 | 159635 | 270000
5 | 60:00.01 | 6:15.57 | 270001 | 298182
Range status and errors
Selected range
Filename C:\EAC\Downloads\The Cosmosamatics - Live at Banlieues Bleues.wav
Peak level 99.9 %
Extraction speed 2.1 X
Range quality 99.9 %
Test CRC A31B5E6B
Copy CRC 6A5BEE6B
Copy OK
No errors occurred
AccurateRip summary
Track 1 accurately ripped (confidence 1) [81D1E709] (AR v1)
Track 2 accurately ripped (confidence 1) [873361FE] (AR v1)
Track 3 accurately ripped (confidence 1) [2833D776] (AR v1)
Track 4 accurately ripped (confidence 1) [1E828F49] (AR v1)
Track 5 accurately ripped (confidence 1) [FBE2B8D9] (AR v1)
All tracks accurately ripped
End of status report
==== Log checksum 2EEF845702B4F417B39F917625F50F62F23D62DEB972A7B01B4F5AF7105FABC9 ====
 
Содержание индексной карты (.CUE)
REM GENRE Jazz
REM DATE 2003
REM DISCID 350F8705
REM COMMENT "ExactAudioCopy v1.0b2"
PERFORMER "The Cosmosamatics"
TITLE "Live at Banlieues Bleues"
FILE "The Cosmosamatics - Live at Banlieues Bleues.flac" WAVE
TRACK 01 AUDIO
TITLE "Avant Garde Destruct"
PERFORMER "The Cosmosamatics"
INDEX 01 00:00:00
TRACK 02 AUDIO
TITLE "Quasar"
PERFORMER "The Cosmosamatics"
INDEX 00 07:22:09
INDEX 01 07:24:65
TRACK 03 AUDIO
TITLE "12 Seasons of Love"
PERFORMER "The Cosmosamatics"
INDEX 00 27:25:00
INDEX 01 27:27:07
TRACK 04 AUDIO
TITLE "Telergy"
PERFORMER "The Cosmosamatics"
INDEX 00 35:26:08
INDEX 01 35:28:35
TRACK 05 AUDIO
TITLE "Aubade"
PERFORMER "The Cosmosamatics"
INDEX 00 59:57:22
INDEX 01 60:00:01
 
Об альбоме (сборнике)
The Cosmosamatics are the brainchild of saxophonists Michael Marcus and Sonny Simmons, and this incarnation features Tarus Mateen on acoustic bass guitar and the marvelous Andrew Cyrille on drums. Marcus has made a name for himself playing the seldom-heard saxello and stritch, but he is also quite proficient on various other reed instruments and, as this recording can testify, is a quite accomplished baritone sax player. On his ballad "12 Seasons of Love," his heartfelt delivery shows how much his playing is steeped in the blues. Marcus and Simmons are kindred spirits and display some sound cohesion. To hear them intertwine their lines or play countermelodies is quite a delight. They are supported by a first-class rhythm section: Mateen is a very melodic player and gives a modern sheen to the overall results, while Cyrille is just perfect, crisp yet unobtrusive. Both are largely responsible for the success of "Quasar," one of the two epics penned by Marcus. It is built over a simple bassline, which Mateen uses to weave endless variations over Cyrille's inventive patterns. Unfortunately, they are not quite able to replicate such a feat on the other epic, "Telergy," which tends to meander far too long. Despite this minor quibble, the aforementioned qualities make this live recording a highly enjoyable experience.
 
Состав
Andrew Cyrille Composer, Drums
Michael Marcus Composer, Sax (Baritone), Saxophone
Tarus Mateen Bass
Sonny Simmons Composer, Sax (Alto)
Any questions -> support@pro-jazz.com. По всем вопросам пишите -> support@pro-jazz.com
19:59
204
Нет комментариев. Ваш будет первым!