Вы используете незарегистрированную версию компонента "Вкладки"!

Поиск

(Avant-Garde Jazz, Free Jazz) Charles Tyler - Eastern Man Alone - 1967, FLAC (tracks+.cue), lossless

(Avant-Garde Jazz, Free Jazz) Charles Tyler - Eastern Man Alone - 1967, FLAC (tracks+.cue), lossless
Треклист:
Charles Tyler - Eastern Man Alone
Жанр: Avant-Garde Jazz, Free Jazz
Год издания диска: 1967
Издатель (лейбл): ZYX - MUSIC GMBH
Номер по каталогу: ESP 1059-2
Аудиокодек: FLAC (*.flac)
Тип рипа: tracks+.cue
Битрейт аудио: lossless
Продолжительность: 00:48:16
Источник (релизер): mishka1981
Наличие сканов в содержимом раздачи: да
Треклист:
1. Cha-Lacy's Out East
2. Man Alone
3. Le-Roi
4. Eastern
Personnel:
Charles Tyler (as)
David Baker (cello)
Kent Brinkley, Brent McKesson (b)
 
Лог создания рипа
Exact Audio Copy V1.0 beta 1 from 15. November 2010
EAC extraction logfile from 21. December 2011, 13:52
Charles Tyler / Eastern Man Alone
Used drive : TSSTcorpCDDVDW TS-L633A Adapter: 3 ID: 0
Read mode : Secure
Utilize accurate stream : Yes
Defeat audio cache : Yes
Make use of C2 pointers : No
Read offset correction : 6
Overread into Lead-In and Lead-Out : No
Fill up missing offset samples with silence : Yes
Delete leading and trailing silent blocks : No
Null samples used in CRC calculations : Yes
Used interface : Installed external ASPI interface
Gap handling : Appended to previous track
Used output format : User Defined Encoder
Selected bitrate : 896 kBit/s
Quality : High
Add ID3 tag : No
Command line compressor : C:\Program Files\Exact Audio Copy\FLAC\FLAC.EXE
Additional command line options : -8 -V -T "ARTIST=%a" -T "TITLE=%t" -T "ALBUM=%g" -T "DATE=%y" -T "TRACKNUMBER=%n" -T "TOTALTRACKS=%x" -T "GENRE=%m" -T "ALBUMARTIST=%v" -T "ALBUM ARTIST=%v" -T "COMMENT=EAC Secure Mode, Test & Copy, AccurateRip, FLAC -8" %s
TOC of the extracted CD
Track | Start | Length | Start sector | End sector
---------------------------------------------------------
1 | 0:00.00 | 12:22.07 | 0 | 55656
2 | 12:22.07 | 12:00.03 | 55657 | 109659
3 | 24:22.10 | 12:58.05 | 109660 | 168014
4 | 37:20.15 | 10:56.25 | 168015 | 217239
Track 1
Filename C:\MY RIPS\01 - Cha-Lacy's Out East.wav
Pre-gap length 0:00:02.00
Peak level 72.2 %
Extraction speed 1.3 X
Track quality 100.0 %
Test CRC A1283B17
Copy CRC A1283B17
Accurately ripped (confidence 1) [11B7F99F]
Copy OK
Track 2
Filename C:\MY RIPS\02 - Man Alone.wav
Pre-gap length 0:00:02.67
Peak level 70.7 %
Extraction speed 1.6 X
Track quality 100.0 %
Test CRC 220C58A0
Copy CRC 220C58A0
Accurately ripped (confidence 1) [3B6C5018]
Copy OK
Track 3
Filename C:\MY RIPS\03 - Le-Roi.wav
Pre-gap length 0:00:05.45
Peak level 78.2 %
Extraction speed 1.9 X
Track quality 100.0 %
Test CRC E1A44239
Copy CRC E1A44239
Accurately ripped (confidence 1) [B8731A76]
Copy OK
Track 4
Filename C:\MY RIPS\04 - Eastern.wav
Pre-gap length 0:00:05.30
Peak level 90.0 %
Extraction speed 2.1 X
Track quality 100.0 %
Test CRC 435AF5C3
Copy CRC 435AF5C3
Accurately ripped (confidence 1) [EA223430]
Copy OK
All tracks accurately ripped
No errors occurred
End of status report
==== Log checksum 90A37F3C554210D2C9131D2D896D2718D94742B69958391F1E13AC8F232F13D7 ====
 
Содержание индексной карты (.CUE)
REM GENRE Avantgarde
REM DATE 1967
REM DISCID 2A0B5004
REM COMMENT "ExactAudioCopy v1.0b1"
PERFORMER "Charles Tyler"
TITLE "Eastern Man Alone"
FILE "01 - Cha-Lacy's Out East.wav" WAVE
TRACK 01 AUDIO
TITLE "Cha-Lacy's Out East"
PERFORMER "Charles Tyler"
INDEX 01 00:00:00
TRACK 02 AUDIO
TITLE "Man Alone"
PERFORMER "Charles Tyler"
INDEX 00 12:19:15
FILE "02 - Man Alone.wav" WAVE
INDEX 01 00:00:00
TRACK 03 AUDIO
TITLE "Le-Roi"
PERFORMER "Charles Tyler"
INDEX 00 11:54:33
FILE "03 - Le-Roi.wav" WAVE
INDEX 01 00:00:00
TRACK 04 AUDIO
TITLE "Eastern"
PERFORMER "Charles Tyler"
INDEX 00 12:52:50
FILE "04 - Eastern.wav" WAVE
INDEX 01 00:00:00
Any questions -> support@pro-jazz.com. По всем вопросам пишите -> support@pro-jazz.com
19:59
152
Нет комментариев. Ваш будет первым!