Вы используете незарегистрированную версию компонента "Вкладки"!

Поиск

(Free Jazz) The Cosmosamatics (Sonny Simmons, Michael Marcus, Tarus Mateen, Jay Rosen) - Magnitudes - 2005, FLAC (image+.cue), lossless

(Free Jazz) The Cosmosamatics (Sonny Simmons, Michael Marcus, Tarus Mateen, Jay Rosen) - Magnitudes - 2005, FLAC (image+.cue), lossless
Треклист:
The Cosmosamatics / Magnitudes
Жанр: Free Jazz
Страна-производитель диска: Italy
Год издания диска: 2005
Издатель (лейбл): Soul Note
Номер по каталогу: 121443-2
Аудиокодек: FLAC (*.flac)
Тип рипа: image+.cue
Битрейт аудио: lossless
Продолжительность: 57:56
Источник (релизер): cd
Наличие сканов в содержимом раздачи: нет
Треклист:
1. Uugmoanius 4:04
2. Avant Garde Destruct - Take 1 6:54
3. Thank U Bird - Take 1 4:24
4. Tonal Magnitudes - Take 1 6:11
5. 12 Seasons Of Love 4:27
6. Telergy 5:06
7. Tonal Magnitudes - Take 2 4:01
8. Urban Nitemare 7:44
9. Thank U Bird - Take 2 3:13
10. Avant Garde Destruct - Take 2 6:42
11. Round About Midnight 5:03
 
Лог создания рипа
Exact Audio Copy V1.0 beta 2 from 29. April 2011
EAC extraction logfile from 21. December 2011, 10:25
The Cosmosamatics / Magnitudes
Used drive : Optiarc DVD RW AD-7170A Adapter: 0 ID: 0
Read mode : Secure
Utilize accurate stream : Yes
Defeat audio cache : Yes
Make use of C2 pointers : No
Read offset correction : 48
Overread into Lead-In and Lead-Out : No
Fill up missing offset samples with silence : Yes
Delete leading and trailing silent blocks : No
Null samples used in CRC calculations : Yes
Used interface : Native Win32 interface for Win NT & 2000
Used output format : User Defined Encoder
Selected bitrate : 320 kBit/s
Quality : High
Add ID3 tag : No
Command line compressor : C:\Program Files\Exact Audio Copy\Flac\flac.exe
Additional command line options : -V -8 -T "Date=%year%" -T "Genre=%genre%" %source%
TOC of the extracted CD
Track | Start | Length | Start sector | End sector
---------------------------------------------------------
1 | 0:00.00 | 4:04.45 | 0 | 18344
2 | 4:04.45 | 6:54.65 | 18345 | 49459
3 | 10:59.35 | 4:24.57 | 49460 | 69316
4 | 15:24.17 | 6:11.65 | 69317 | 97206
5 | 21:36.07 | 4:27.30 | 97207 | 117261
6 | 26:03.37 | 5:06.55 | 117262 | 140266
7 | 31:10.17 | 4:01.53 | 140267 | 158394
8 | 35:11.70 | 7:44.70 | 158395 | 193264
9 | 42:56.65 | 3:13.47 | 193265 | 207786
10 | 46:10.37 | 6:42.63 | 207787 | 237999
11 | 52:53.25 | 5:03.07 | 238000 | 260731
Range status and errors
Selected range
Filename C:\EAC\Downloads\The Cosmosamatics - Magnitudes.wav
Peak level 100.0 %
Extraction speed 5.2 X
Range quality 100.0 %
Test CRC 5A98E379
Copy CRC 5A98E379
Copy OK
No errors occurred
AccurateRip summary
Track 1 not present in database
Track 2 not present in database
Track 3 not present in database
Track 4 not present in database
Track 5 not present in database
Track 6 not present in database
Track 7 not present in database
Track 8 not present in database
Track 9 not present in database
Track 10 not present in database
Track 11 not present in database
None of the tracks are present in the AccurateRip database
End of status report
==== Log checksum 7CD98ABADB09C89185DACF4CE4A62A6CB5A5D7F2A2809A438EF3B195E7BD9DF9 ====
 
Содержание индексной карты (.CUE)
REM GENRE Jazz
REM DATE 2005
REM DISCID A20D940B
REM COMMENT "ExactAudioCopy v1.0b2"
PERFORMER "The Cosmosamatics"
TITLE "Magnitudes"
FILE "The Cosmosamatics - Magnitudes.flac" WAVE
TRACK 01 AUDIO
TITLE "Uugmoanius"
PERFORMER "The Cosmosamatics"
INDEX 01 00:00:00
TRACK 02 AUDIO
TITLE "Avant Garde Destruct - Take 1"
PERFORMER "The Cosmosamatics"
INDEX 01 04:04:45
TRACK 03 AUDIO
TITLE "Thank U Bird - Take 1"
PERFORMER "The Cosmosamatics"
INDEX 01 10:59:35
TRACK 04 AUDIO
TITLE "Tonal Magnitudes - Take 1"
PERFORMER "The Cosmosamatics"
INDEX 01 15:24:17
TRACK 05 AUDIO
TITLE "12 Seasons Of Love"
PERFORMER "The Cosmosamatics"
INDEX 01 21:36:07
TRACK 06 AUDIO
TITLE "Telergy"
PERFORMER "The Cosmosamatics"
INDEX 01 26:03:37
TRACK 07 AUDIO
TITLE "Tonal Magnitudes - Take 2"
PERFORMER "The Cosmosamatics"
INDEX 01 31:10:17
TRACK 08 AUDIO
TITLE "Urban Nitemare"
PERFORMER "The Cosmosamatics"
INDEX 01 35:11:70
TRACK 09 AUDIO
TITLE "Thank U Bird - Take 2"
PERFORMER "The Cosmosamatics"
INDEX 01 42:56:65
TRACK 10 AUDIO
TITLE "Avant Garde Destruct - Take 2"
PERFORMER "The Cosmosamatics"
INDEX 01 46:10:37
TRACK 11 AUDIO
TITLE "Round About Midnight"
PERFORMER "The Cosmosamatics"
INDEX 01 52:53:25
 
Состав
Sonny Simmons - Alto Sax
Michael Marcus - Baritone Sax, Saxello, Bb Clarinet
Tarus Mateen - Acoustic & Electric Bass
Jay Rosen - Drums, Percussion
Any questions -> support@pro-jazz.com. По всем вопросам пишите -> support@pro-jazz.com
19:58
164
Нет комментариев. Ваш будет первым!