Вы используете незарегистрированную версию компонента "Вкладки"!

Поиск

( free jazz) The Cosmosamatics (Sonny Simmons Michael Marcus Clifford Barbaro Jay Rosen)\Zetrons (2005), FLAC (tracks+.cue), lossless

( free jazz) The Cosmosamatics (Sonny Simmons Michael Marcus Clifford Barbaro Jay Rosen)\Zetrons (2005), FLAC (tracks+.cue), lossless
Треклист:


The Cosmosamatics - Zetrons (2005)

Жанр: free jazz
Год выпуска: 2005
Издатель (лейбл): Not Two / MW 764-2
Формат: FLAC (tracks+.cue)
Битрейт аудио: lossless
Продолжительность 1`05`54
Источник: what.cd
Sonny Simmons - alto sax, English horn
Michael Marcus - tenor sax, Bb clarinet
Masa Kamaguchi - bass
Jay Rosen - drums

tracks

1. Crossroads Out! (Sonny Simmons-Simmorol Music/BMI) [09:54]
2. Road Dogg (Michael Marcus-Marmisun Publ./ASCAP) [07:41]
3. Mingus Mangus (Sonny Simmons-Simmorol Music/BMI) [11:32]
4. Serene (Eric Dolphy-Prestige Music/BMI) [05:38]
5. Shining Winds (Michael Marcus-Marmisun Publ./ASCAP) [06:38]
6. Harmonious Beautious (Michael Marcus-Marmisun Publ./ASCAP) [07:02]
7. Dance Of The Zetrons (Michael Marcus-Marmisun Publ./ASCAP) [08:52]
8. 12 Seasons Of Love (Michael Marcus-Marmisun Publ./ASCAP) [08:36]


 
.log
EAC extraction logfile from 24. March 2006, 14:19 for CD
The Cosmosamatics / Zetrons
Used drive : LITE-ON LTR-52327S Adapter: 3 ID: 2
Read mode : Secure with NO C2, accurate stream, disable cache
Read offset correction : 6
Overread into Lead-In and Lead-Out : No
Used output format : Internal WAV Routines
44.100 Hz; 16 Bit; Stereo
Other options :
Fill up missing offset samples with silence : Yes
Delete leading and trailing silent blocks : No
Native Win32 interface for Win NT & 2000
Track 1
Filename F:\Zum Rippen\Cosmosamatics - Zetrons\01 - Crossroads Out.wav
Pre-gap length 0:00:02.00
Peak level 98.9 %
Track quality 100.0 %
Test CRC 9BF9A007
Copy CRC 9BF9A007
Copy OK
Track 2
Filename F:\Zum Rippen\Cosmosamatics - Zetrons\02 - Road Dog.wav
Pre-gap length 0:00:02.00
Peak level 98.9 %
Track quality 100.0 %
Test CRC E073E453
Copy CRC E073E453
Copy OK
Track 3
Filename F:\Zum Rippen\Cosmosamatics - Zetrons\03 - Mingus Mangus.wav
Pre-gap length 0:00:02.00
Peak level 62.3 %
Track quality 100.0 %
Test CRC 810990A0
Copy CRC 810990A0
Copy OK
Track 4
Filename F:\Zum Rippen\Cosmosamatics - Zetrons\04 - Serene.wav
Pre-gap length 0:00:02.00
Peak level 62.3 %
Track quality 99.9 %
Test CRC C73B75DF
Copy CRC C73B75DF
Copy OK
Track 5
Filename F:\Zum Rippen\Cosmosamatics - Zetrons\05 - Shining Winds.wav
Pre-gap length 0:00:02.00
Peak level 84.1 %
Track quality 100.0 %
Test CRC E9B48CB8
Copy CRC E9B48CB8
Copy OK
Track 6
Filename F:\Zum Rippen\Cosmosamatics - Zetrons\06 - Harmonious Beautious.wav
Pre-gap length 0:00:02.00
Peak level 98.9 %
Track quality 100.0 %
Test CRC 96DC2474
Copy CRC 96DC2474
Copy OK
Track 7
Filename F:\Zum Rippen\Cosmosamatics - Zetrons\07 - Dance Of The Zetrons.wav
Pre-gap length 0:00:02.00
Peak level 98.9 %
Track quality 100.0 %
Test CRC 3E7126A3
Copy CRC 3E7126A3
Copy OK
Track 8
Filename F:\Zum Rippen\Cosmosamatics - Zetrons\08 - Twelve Seasons Of Love.wav
Pre-gap length 0:00:02.00
Peak level 94.4 %
Track quality 100.0 %
Test CRC A82C01AF
Copy CRC A82C01AF
Copy OK
No errors occured
End of status report
 
.cue
REM GENRE Jazz
REM DATE 2005
REM DISCID 810F7108
REM COMMENT "ExactAudioCopy v0.95b3"
PERFORMER "The Cosmosamatics"
TITLE "Zetrons"
FILE "01 - Crossroads Out.wav" WAVE
TRACK 01 AUDIO
TITLE "Crossroads Out"
PERFORMER "The Cosmosamatics"
INDEX 01 00:00:00
TRACK 02 AUDIO
TITLE "Road Dog"
PERFORMER "The Cosmosamatics"
INDEX 00 09:52:11
FILE "02 - Road Dog.wav" WAVE
INDEX 01 00:00:00
TRACK 03 AUDIO
TITLE "Mingus Mangus"
PERFORMER "The Cosmosamatics"
INDEX 00 07:39:25
FILE "03 - Mingus Mangus.wav" WAVE
INDEX 01 00:00:00
TRACK 04 AUDIO
TITLE "Serene"
PERFORMER "The Cosmosamatics"
INDEX 00 11:29:46
FILE "04 - Serene.wav" WAVE
INDEX 01 00:00:00
TRACK 05 AUDIO
TITLE "Shining Winds"
PERFORMER "The Cosmosamatics"
INDEX 00 05:36:27
FILE "05 - Shining Winds.wav" WAVE
INDEX 01 00:00:00
TRACK 06 AUDIO
TITLE "Harmonious Beautious"
PERFORMER "The Cosmosamatics"
INDEX 00 06:36:00
FILE "06 - Harmonious Beautious.wav" WAVE
INDEX 01 00:00:00
TRACK 07 AUDIO
TITLE "Dance Of The Zetrons"
PERFORMER "The Cosmosamatics"
INDEX 00 06:59:74
FILE "07 - Dance Of The Zetrons.wav" WAVE
INDEX 01 00:00:00
TRACK 08 AUDIO
TITLE "Twelve Seasons Of Love"
PERFORMER "The Cosmosamatics"
INDEX 00 08:50:26
FILE "08 - Twelve Seasons Of Love.wav" WAVE
INDEX 01 00:00:00
 
.accurip
[CUETools log; Date: 06/02/13 18:57:41; Version: 2.1.4]
[CTDB TOCID: OdP9ffE.uVPSFtRnNib0a.5uK6o-] disk not present in database.
[AccurateRip ID: 0014e660-0089702d-810f7108] found.
Track [ CRC | V2 ] Status
01 [1fb402e2|13089873] (3+0/3) Accurately ripped
02 [a362befc|7f3f4858] (3+0/3) Accurately ripped
03 [4f0eccc4|52b267d0] (3+0/3) Accurately ripped
04 [4e861683|f3af69e3] (3+0/3) Accurately ripped
05 [a6570998|92427ecc] (3+0/3) Accurately ripped
06 [4dca9c15|06593504] (3+0/3) Accurately ripped
07 [5ad18ef8|926e4842] (3+0/3) Accurately ripped
08 [10fc640d|d14964c5] (3+0/3) Accurately ripped
Track Peak [ CRC32 ] [W/O NULL] [ LOG ]
-- 98.9 [A60F7937] [3904BA87]
01 98.9 [9BF9A007] [858B24B7] CRC32
02 98.9 [E073E453] [6E4C0F75] CRC32
03 62.3 [810990A0] [F5E6DA00] CRC32
04 62.3 [C73B75DF] [E4348D2A] CRC32
05 84.1 [E9B48CB8] [B1392AEA] CRC32
06 98.9 [96DC2474] [5CD0480C] CRC32
07 98.9 [3E7126A3] [094F0E56] CRC32
08 94.4 [A82C01AF] [A9F55652] CRC32

другие релизы
Any questions -> support@pro-jazz.com. По всем вопросам пишите -> support@pro-jazz.com
08:45
173
Нет комментариев. Ваш будет первым!