Вы используете незарегистрированную версию компонента "Вкладки"!

Поиск

(Free Jazz) Art Ensemble of Chicago - Go Home + Chi Congo - 2010, FLAC (tracks+.cue), lossless

(Free Jazz) Art Ensemble of Chicago - Go Home + Chi Congo - 2010, FLAC (tracks+.cue), lossless
Треклист:
Art Ensemble of Chicago / Go Home + Chi Congo
Жанр: Free Jazz
Страна-производитель диска: Europe
Год издания: 2010
Издатель (лейбл): FreeFactory
Номер по каталогу: FreeFactory 066
Аудиокодек: FLAC (*.flac)
Тип рипа: tracks+.cue
Битрейт аудио: lossless
Продолжительность: 1:10:27
Источник (релизер): Max Monteiro
Наличие сканов в содержимом раздачи: нет
Треклист:
Go Home
1. Hello Chi (Art Ensemble of Chicago) 2:54
2. From Bengali (Art Ensemble of Chicago) 3:52
3. From St. Louis (Art Ensemble of Chicago) 2:31
4. Fly with Honey Bee (Art Ensemble of Chicago) 6:23
5. Hello Chi (Art Ensemble of Chicago) 2:39
6. Dance (Art Ensemble of Chicago) 15:19
Chi Congo
7. Chi-Congo (Malachi Favors) 11:40
8. Enlorfe – Part One (Roscoe Mitchell) 6:42
9. Enlorfe – Part Two (Roscoe Mitchell) 7:56
10.Hipparippp (Roscoe Mitchell) 10:31
 
Лог создания рипа
Exact Audio Copy V1.0 beta 3 from 29. August 2011
EAC extraction logfile from 6. February 2013, 14:38
Art Ensemble of Chicago / Go Home + Chi Congo
Used drive : SlimtypeeNAU508 5 Adapter: 1 ID: 0
Read mode : Secure
Utilize accurate stream : Yes
Defeat audio cache : Yes
Make use of C2 pointers : No
Read offset correction : 6
Overread into Lead-In and Lead-Out : No
Fill up missing offset samples with silence : Yes
Delete leading and trailing silent blocks : No
Null samples used in CRC calculations : Yes
Used interface : Native Win32 interface for Win NT & 2000
Gap handling : Appended to previous track
Used output format : User Defined Encoder
Selected bitrate : 768 kBit/s
Quality : High
Add ID3 tag : No
Command line compressor : C:\Program Files (x86)\Exact Audio Copy\Flac\flac.exe
Additional command line options : -8 -V -T "ARTIST=%artist%" -T "TITLE=%title%" -T "ALBUM=%albumtitle%" -T "DATE=%year%" -T "TRACKNUMBER=%tracknr%" -T "GENRE=%genre%" -T "PERFORMER=%albuminterpret%" -T "COMPOSER=%composer%" %haslyrics%--tag-from-file=LYRICS="%lyricsfile%"%haslyrics% -T "ALBUMARTIST=%albumartist%" -T "DISCNUMBER=%cdnumber%" -T "TOTALDISCS=%totalcds%" -T "TOTALTRACKS=%numtracks%" -T "COMMENT=%comment%" %source% -o %dest%
TOC of the extracted CD
Track | Start | Length | Start sector | End sector
---------------------------------------------------------
1 | 0:00.01 | 2:54.07 | 1 | 13057
2 | 2:54.08 | 3:51.49 | 13058 | 30431
3 | 6:45.57 | 2:30.65 | 30432 | 41746
4 | 9:16.47 | 6:22.64 | 41747 | 70460
5 | 15:39.36 | 2:38.38 | 70461 | 82348
6 | 18:17.74 | 15:19.22 | 82349 | 151295
7 | 33:37.21 | 11:40.08 | 151296 | 203803
8 | 45:17.29 | 6:41.68 | 203804 | 233946
9 | 51:59.22 | 7:56.21 | 233947 | 269667
10 | 59:55.43 | 10:31.12 | 269668 | 317004
Track 1
Filename C:\EAC rips\01 - Hello Chi.wav
Pre-gap length 0:00:02.01
Peak level 98.6 %
Extraction speed 1.1 X
Track quality 100.0 %
Test CRC 9EF3A9F1
Copy CRC 9EF3A9F1
Track not present in AccurateRip database
Copy OK
Track 2
Filename C:\EAC rips\02 - From Bengali.wav
Peak level 97.7 %
Extraction speed 1.2 X
Track quality 100.0 %
Test CRC 5BC55DE0
Copy CRC 5BC55DE0
Track not present in AccurateRip database
Copy OK
Track 3
Filename C:\EAC rips\03 - From St. Louis.wav
Peak level 76.3 %
Extraction speed 1.2 X
Track quality 100.0 %
Test CRC 8D7AA76E
Copy CRC 8D7AA76E
Track not present in AccurateRip database
Copy OK
Track 4
Filename C:\EAC rips\04 - Fly with Honey Bee.wav
Peak level 98.5 %
Extraction speed 1.5 X
Track quality 100.0 %
Test CRC EE94FAB9
Copy CRC EE94FAB9
Track not present in AccurateRip database
Copy OK
Track 5
Filename C:\EAC rips\05 - Hello Chi.wav
Peak level 81.9 %
Extraction speed 1.4 X
Track quality 100.0 %
Test CRC 60C2F28D
Copy CRC 60C2F28D
Track not present in AccurateRip database
Copy OK
Track 6
Filename C:\EAC rips\06 - Dance.wav
Peak level 98.8 %
Extraction speed 1.8 X
Track quality 99.9 %
Test CRC 004D46FE
Copy CRC 004D46FE
Track not present in AccurateRip database
Copy OK
Track 7
Filename C:\EAC rips\07 - Chi-Congo.wav
Peak level 97.7 %
Extraction speed 2.2 X
Track quality 100.0 %
Test CRC 0AE90838
Copy CRC 0AE90838
Track not present in AccurateRip database
Copy OK
Track 8
Filename C:\EAC rips\08 - Enlorfe - Part One.wav
Peak level 97.7 %
Extraction speed 2.2 X
Track quality 100.0 %
Test CRC A617AC07
Copy CRC A617AC07
Track not present in AccurateRip database
Copy OK
Track 9
Filename C:\EAC rips\09 - Enlorfe - Part Two.wav
Peak level 97.7 %
Extraction speed 2.4 X
Track quality 100.0 %
Test CRC ADFFE8C2
Copy CRC ADFFE8C2
Track not present in AccurateRip database
Copy OK
Track 10
Filename C:\EAC rips\10 - Hipparippp.wav
Peak level 91.9 %
Extraction speed 2.4 X
Track quality 99.9 %
Test CRC 63204145
Copy CRC 63204145
Track not present in AccurateRip database
Copy OK
None of the tracks are present in the AccurateRip database
No errors occurred
End of status report
---- CUETools DB Plugin V2.1.4
[CTDB TOCID: NKaAwTrJHzJz2m_2GwluBRtnknE-] disk not present in database
Submit result: NKaAwTrJHzJz2m_2GwluBRtnknE- has been uploaded
==== Log checksum 9856726CC89F34939AF7E20DA8E61DA05552319F2BE3AA77867C714B3D382D0A ====
 
Содержание индексной карты (.CUE)
REM GENRE Jazz
REM DATE 2010
REM DISCID 8C10820A
REM COMMENT "ExactAudioCopy v1.0b3"
PERFORMER "Art Ensemble of Chicago"
TITLE "Go Home + Chi Congo"
FILE "01 - Hello Chi.wav" WAVE
TRACK 01 AUDIO
TITLE "Hello Chi"
PERFORMER "Art Ensemble of Chicago"
PREGAP 00:00:01
INDEX 01 00:00:00
FILE "02 - From Bengali.wav" WAVE
TRACK 02 AUDIO
TITLE "From Bengali"
PERFORMER "Art Ensemble of Chicago"
INDEX 01 00:00:00
FILE "03 - From St. Louis.wav" WAVE
TRACK 03 AUDIO
TITLE "From St. Louis"
PERFORMER "Art Ensemble of Chicago"
INDEX 01 00:00:00
FILE "04 - Fly with Honey Bee.wav" WAVE
TRACK 04 AUDIO
TITLE "Fly with Honey Bee"
PERFORMER "Art Ensemble of Chicago"
INDEX 01 00:00:00
FILE "05 - Hello Chi.wav" WAVE
TRACK 05 AUDIO
TITLE "Hello Chi"
PERFORMER "Art Ensemble of Chicago"
INDEX 01 00:00:00
FILE "06 - Dance.wav" WAVE
TRACK 06 AUDIO
TITLE "Dance"
PERFORMER "Art Ensemble of Chicago"
INDEX 01 00:00:00
FILE "07 - Chi-Congo.wav" WAVE
TRACK 07 AUDIO
TITLE "Chi-Congo"
PERFORMER "Art Ensemble of Chicago"
INDEX 01 00:00:00
FILE "08 - Enlorfe - Part One.wav" WAVE
TRACK 08 AUDIO
TITLE "Enlorfe - Part One"
PERFORMER "Art Ensemble of Chicago"
INDEX 01 00:00:00
FILE "09 - Enlorfe - Part Two.wav" WAVE
TRACK 09 AUDIO
TITLE "Enlorfe - Part Two"
PERFORMER "Art Ensemble of Chicago"
INDEX 01 00:00:00
FILE "10 - Hipparippp.wav" WAVE
TRACK 10 AUDIO
TITLE "Hipparippp"
PERFORMER "Art Ensemble of Chicago"
INDEX 01 00:00:00
 
Состав
GO HOME
Tracks 1-5:
Lester Bowie – Trumpet, Flugelhorn, Bass Drum
Roscoe Mitchell – Soprano, Alto and Tenor Saxophones, Flute, Vibes, Siren, Percussions
Joseph Jarman – Clarinet, Flute, Vibes, Conga, Bells, Drums, Percussion
Malachi Favors Maghostut – Bass, Kazoo, Percussions
Fontella Bass – Vocals on 5
Recorded April, 1970 at Studio Ossian, Paris.
Track 6:
Lester Bowie, Ivan Julien, Bernard Vitet, Ambrose Jackson – Trumpet
Raymond Katarzynski – Trombone
Roscoe Mitchell, Joseph Jarman – Flute, Alto Saxophone
Jean-Louis Chautemps – Tenor Saxophone
Alain Matot, Ventosa – Alto Saxophone
Kenneth Terroade – Tenor Saxophone
Malachi Favors Maghostut – Bass
+ three trombones, unknown percussions & string ensemble
Recorded March, 1970 at Studio Ossian, Paris.
CHI CONGO
Lester Bowie – Trumpet, Flugelhorn, Steer Horns, Bass Drum
Roscoe Mitchell – Alto, Soprano and Baritone Saxophones, Clarinet, Flute, Steel Drums, Cymbals, Congas, Log Drums, Gongs, Whistles, Bells, Siren
Joseph Jarman – Alto and Soprano Saxophones, Clarinet, Oboe, Flute, Guitar, Marimba, Vibes, Congas, Gongs, Whistles, Bells, Siren
Malachi Favors – Bass, Banjo, Zither, Log Drum, Percussions
Famoudou Don Moye – Drums, Congas, Bass Marimba, Temple Blocks
Recorded May and June, 1970 in Paris.
Any questions -> support@pro-jazz.com. По всем вопросам пишите -> support@pro-jazz.com
08:44
197
Нет комментариев. Ваш будет первым!