Вы используете незарегистрированную версию компонента "Вкладки"!

Поиск

(Free Jazz) Air (Henry Threadgill, Fred Hopkins, Steve McCall) - Air Song - 2009 (1975), FLAC (tracks+.cue), lossless

(Free Jazz) Air (Henry Threadgill, Fred Hopkins, Steve McCall) - Air Song - 2009 (1975), FLAC (tracks+.cue), lossless
Треклист:
Air / Air Song
Жанр: Free Jazz
Страна-производитель диска: U.K.
Год издания: 2009 (1975)
Издатель (лейбл): Candid / Whynot
Номер по каталогу: WNCD 79403
Аудиокодек: FLAC (*.flac)
Тип рипа: tracks+.cue
Битрейт аудио: lossless
Продолжительность: 49:04
Источник (релизер): Max Monteiro
Наличие сканов в содержимом раздачи: нет
Треклист:
1. Untitled Song 12:13
2. Great Body of the Riddle or Where Were the Dodge Boys When My Clay Started to Slide 13:21
3. Dance of the Beast 11:12
4. Air Song 12:18
All selections composed by Henry Threadgill.
 
Лог создания рипа
Exact Audio Copy V1.0 beta 3 from 29. August 2011
EAC extraction logfile from 7. February 2013, 12:34
Air / Air Song
Used drive : SlimtypeeNAU508 5 Adapter: 1 ID: 0
Read mode : Secure
Utilize accurate stream : Yes
Defeat audio cache : Yes
Make use of C2 pointers : No
Read offset correction : 6
Overread into Lead-In and Lead-Out : No
Fill up missing offset samples with silence : Yes
Delete leading and trailing silent blocks : No
Null samples used in CRC calculations : Yes
Used interface : Native Win32 interface for Win NT & 2000
Gap handling : Appended to previous track
Used output format : User Defined Encoder
Selected bitrate : 768 kBit/s
Quality : High
Add ID3 tag : No
Command line compressor : C:\Program Files (x86)\Exact Audio Copy\Flac\flac.exe
Additional command line options : -8 -V -T "ARTIST=%artist%" -T "TITLE=%title%" -T "ALBUM=%albumtitle%" -T "DATE=%year%" -T "TRACKNUMBER=%tracknr%" -T "GENRE=%genre%" -T "PERFORMER=%albuminterpret%" -T "COMPOSER=%composer%" %haslyrics%--tag-from-file=LYRICS="%lyricsfile%"%haslyrics% -T "ALBUMARTIST=%albumartist%" -T "DISCNUMBER=%cdnumber%" -T "TOTALDISCS=%totalcds%" -T "TOTALTRACKS=%numtracks%" -T "COMMENT=%comment%" %source% -o %dest%
TOC of the extracted CD
Track | Start | Length | Start sector | End sector
---------------------------------------------------------
1 | 0:00.00 | 12:13.18 | 0 | 54992
2 | 12:13.18 | 13:21.07 | 54993 | 115074
3 | 25:34.25 | 11:11.65 | 115075 | 165464
4 | 36:46.15 | 12:18.20 | 165465 | 220834
Track 1
Filename C:\EAC rips\01 - Untitled Song.wav
Pre-gap length 0:00:02.00
Peak level 100.0 %
Extraction speed 1.3 X
Track quality 100.0 %
Test CRC 318E76C8
Copy CRC 318E76C8
Accurately ripped (confidence 5) [DF9DE3ED] (AR v1)
Copy OK
Track 2
Filename C:\EAC rips\02 - Great Body of the Riddle or Where Were the Dodge Boys When My Clay Started to Slide.wav
Pre-gap length 0:00:00.03
Peak level 51.7 %
Extraction speed 1.6 X
Track quality 99.9 %
Test CRC 5D29FB01
Copy CRC 5D29FB01
Accurately ripped (confidence 5) [9FB07590] (AR v1)
Copy OK
Track 3
Filename C:\EAC rips\03 - Dance of the Beast.wav
Pre-gap length 0:00:02.45
Peak level 67.3 %
Extraction speed 2.0 X
Track quality 100.0 %
Test CRC F2C7C6F5
Copy CRC F2C7C6F5
Accurately ripped (confidence 5) [D4D92908] (AR v1)
Copy OK
Track 4
Filename C:\EAC rips\04 - Air Song.wav
Pre-gap length 0:00:03.57
Peak level 70.2 %
Extraction speed 2.2 X
Track quality 100.0 %
Test CRC 2CA07537
Copy CRC 2CA07537
Accurately ripped (confidence 5) [0F55C66F] (AR v1)
Copy OK
All tracks accurately ripped
No errors occurred
End of status report
---- CUETools DB Plugin V2.1.4
[CTDB TOCID: K5qtDo4Ox9YdTH_Nn2gTqRaoR6s-] found
Submit result: K5qtDo4Ox9YdTH_Nn2gTqRaoR6s- has been confirmed
Track | CTDB Status
1 | (1/1) Accurately ripped
2 | (1/1) Accurately ripped
3 | (1/1) Accurately ripped
4 | (1/1) Accurately ripped
==== Log checksum 4A9A7F0AF7E0E44EC11DA6B088CFC2D16FD313F4C6DE13D8BB269B18BDECEFA9 ====
 
Содержание индексной карты (.CUE)
REM GENRE Jazz
REM DATE 1975
REM DISCID 2C0B8004
REM COMMENT "ExactAudioCopy v1.0b3"
PERFORMER "Air"
TITLE "Air Song"
FILE "01 - Untitled Song.wav" WAVE
TRACK 01 AUDIO
TITLE "Untitled Song"
PERFORMER "Air"
INDEX 01 00:00:00
TRACK 02 AUDIO
TITLE "Great Body of the Riddle or Where Were the Dodge Boys When My Clay Started to..."
PERFORMER "Air"
INDEX 00 12:13:15
FILE "02 - Great Body of the Riddle or Where Were the Dodge Boys When My Clay Started to Slide.wav" WAVE
INDEX 01 00:00:00
TRACK 03 AUDIO
TITLE "Dance of the Beast"
PERFORMER "Air"
INDEX 00 13:18:37
FILE "03 - Dance of the Beast.wav" WAVE
INDEX 01 00:00:00
TRACK 04 AUDIO
TITLE "Air Song"
PERFORMER "Air"
INDEX 00 11:08:08
FILE "04 - Air Song.wav" WAVE
INDEX 01 00:00:00
Доп. информация: Recorded September 10, 1975 at P.S. Recording Studios, Chicago.
 
Состав
Henry Threadgill – Tenor (1), Baritone (2), Alto (3) Saxes & Flutes (4)
Fred Hopkins – Bass
Steve McCall – Percussion
Any questions -> support@pro-jazz.com. По всем вопросам пишите -> support@pro-jazz.com
08:46
158
Нет комментариев. Ваш будет первым!