Вы используете незарегистрированную версию компонента "Вкладки"!

Поиск

(Free Jazz) Tchangodei, Archie Shepp, Mal Waldron Trio - Three for Freedom - 1987, FLAC (tracks+.cue), lossless

(Free Jazz) Tchangodei, Archie Shepp, Mal Waldron Trio - Three for Freedom - 1987, FLAC (tracks+.cue), lossless
Треклист:
Tchangodei, Archie Shepp, Mal Waldron Trio - Three for Freedom
Жанр: Free Jazz
Страна-производитель диска: Франция
Год издания: 2005
Издатель (лейбл): Volcanic Records
Номер по каталогу: 18018
Аудиокодек: FLAC (*.flac)
Тип рипа: tracks+.cue
Битрейт аудио: lossless
Продолжительность: 37:34
Источник (релизер): joshua (hqshare)
Наличие сканов в содержимом раздачи: да
Треклист:
01. The Seagulls of Kristian (10:34)
02. Space Blues (5:30)
03. Africa Struggle (6:49)
04. Driftin Blues (7:00)
05. Ma Mission (7:41)
Состав:
Tchangodei - piano medium aigu, chorus
Archie Shepp - saxophone
Mal Waldron - piano grave medium
Recorded in Lyon, France on May 12 & 15, 1987.
 
Лог создания рипа
EAC extraction logfile from 5. October 2005, 13:54 for CD
Tchangodei- Archie Shepp- Mal Waldron Trio / Three For Freedom
Used drive : SONY DVD RW DRU-500A Adapter: 2 ID: 0
Read mode : Secure with NO C2, accurate stream, disable cache
Read offset correction : 98
Overread into Lead-In and Lead-Out : No
Used output format : Internal WAV Routines
44.100 Hz; 16 Bit; Stereo
Other options :
Fill up missing offset samples with silence : Yes
Delete leading and trailing silent blocks : No
Installed external ASPI interface
Track 1
Filename F:\Future release\A-Three For Freedom(2005)\01-The Seagull Of Kristian.wav
Peak level 97.0 %
Track quality 100.0 %
Test CRC 2BEFDE5D
Copy CRC 2BEFDE5D
Copy OK
Track 2
Filename F:\Future release\A-Three For Freedom(2005)\02-Space Blues.wav
Peak level 95.3 %
Track quality 99.9 %
Test CRC CC79A611
Copy CRC CC79A611
Copy OK
Track 3
Filename F:\Future release\A-Three For Freedom(2005)\03-Africa Struggle.wav
Peak level 95.7 %
Track quality 100.0 %
Test CRC FC161609
Copy CRC FC161609
Copy OK
Track 4
Filename F:\Future release\A-Three For Freedom(2005)\04-Driftin Blues.wav
Peak level 96.5 %
Track quality 100.0 %
Test CRC 58A3B6B8
Copy CRC 58A3B6B8
Copy OK
Track 5
Filename F:\Future release\A-Three For Freedom(2005)\05-Ma Mission.wav
Peak level 97.0 %
Track quality 100.0 %
Test CRC 0B861118
Copy CRC 0B861118
Copy OK
No errors occured
End of status report
 
Содержание индексной карты (.CUE)
PERFORMER "Tchangodei, Archie Shepp, Mal Waldron Trio"
TITLE "Three for Freedom"
FILE "01 - The Seagulls of Kristian.wav" WAVE
TRACK 01 AUDIO
TITLE "The Seagulls of Kristian"
PERFORMER "Tchangodei, Archie Shepp, Mal Waldron Trio"
INDEX 01 00:00:00
FILE "02 - Space Blues.wav" WAVE
TRACK 02 AUDIO
TITLE "Space Blues"
PERFORMER "Tchangodei, Archie Shepp, Mal Waldron Trio"
INDEX 00 00:00:00
INDEX 01 00:00:01
FILE "03 - Africa Struggle.wav" WAVE
TRACK 03 AUDIO
TITLE "Africa Struggle"
PERFORMER "Tchangodei, Archie Shepp, Mal Waldron Trio"
INDEX 00 00:00:00
INDEX 01 00:00:01
FILE "04 - Driftin Blues.wav" WAVE
TRACK 04 AUDIO
TITLE "Driftin Blues"
PERFORMER "Tchangodei, Archie Shepp, Mal Waldron Trio"
INDEX 00 00:00:00
INDEX 01 00:00:01
FILE "05 - Ma Mission.wav" WAVE
TRACK 05 AUDIO
TITLE "Ma Mission"
PERFORMER "Tchangodei, Archie Shepp, Mal Waldron Trio"
INDEX 00 00:00:00
INDEX 01 00:00:01
 
Лог проверки качества
auCDtect: CD records authenticity detector, version 0.8.2
Copyright (c) 2004 Oleg Berngardt. All rights reserved.
Copyright (c) 2004 Alexander Djourik. All rights reserved.
------------------------------------------------------------
Processing file: [01 - The Seagulls of Kristian.wav]
Detected average hi-boundary frequency: 2.021565e+004 Hz
Detected average lo-boundary frequency: 1.383345e+004 Hz
Detected average hi-cut frequency: 2.150274e+004 Hz
Detected average lo-cut frequency: 9.340934e+003 Hz
Maximum probablis boundary frequency: 2.140100e+004 Hz
Coefficient of nonlinearity of a phase: 1.199523e-001
First order smothness: 4.153373e-001
Second order smothness: 6.667642e-001
------------------------------------------------------------
This track looks like CDDA with probability 100%
------------------------------------------------------------
Processing file: [02 - Space Blues.wav]
Detected average hi-boundary frequency: 2.030585e+004 Hz
Detected average lo-boundary frequency: 1.324210e+004 Hz
Detected average hi-cut frequency: 2.141892e+004 Hz
Detected average lo-cut frequency: 8.900792e+003 Hz
Maximum probablis boundary frequency: 2.129400e+004 Hz
Coefficient of nonlinearity of a phase: 6.571577e-002
First order smothness: 4.739949e-001
Second order smothness: 6.516728e-001
------------------------------------------------------------
This track looks like CDDA with probability 100%
------------------------------------------------------------
Processing file: [03 - Africa Struggle.wav]
Detected average hi-boundary frequency: 2.048481e+004 Hz
Detected average lo-boundary frequency: 1.542865e+004 Hz
Detected average hi-cut frequency: 2.137865e+004 Hz
Detected average lo-cut frequency: 1.194747e+004 Hz
Maximum probablis boundary frequency: 2.140100e+004 Hz
Coefficient of nonlinearity of a phase: 7.615444e-002
First order smothness: 3.914720e-001
Second order smothness: 7.027211e-001
------------------------------------------------------------
This track looks like CDDA with probability 100%
------------------------------------------------------------
Processing file: [04 - Driftin Blues.wav]
Detected average hi-boundary frequency: 2.042121e+004 Hz
Detected average lo-boundary frequency: 1.511004e+004 Hz
Detected average hi-cut frequency: 2.148738e+004 Hz
Detected average lo-cut frequency: 1.046378e+004 Hz
Maximum probablis boundary frequency: 2.138500e+004 Hz
Coefficient of nonlinearity of a phase: 1.422322e-001
First order smothness: 3.950563e-001
Second order smothness: 6.601192e-001
------------------------------------------------------------
This track looks like CDDA with probability 100%
------------------------------------------------------------
Processing file: [05 - Ma Mission.wav]
Detected average hi-boundary frequency: 2.033514e+004 Hz
Detected average lo-boundary frequency: 1.454760e+004 Hz
Detected average hi-cut frequency: 2.135494e+004 Hz
Detected average lo-cut frequency: 7.795722e+003 Hz
Maximum probablis boundary frequency: 2.129400e+004 Hz
Coefficient of nonlinearity of a phase: 3.522695e-002
First order smothness: 4.029009e-001
Second order smothness: 6.597502e-001
------------------------------------------------------------
This track looks like CDDA with probability 100%
 
Отчет CUETools
[CUETools log; Date: 20.07.2012 0:54:22; Version: 2.1.4]
[CTDB TOCID: WuL3niM.BiWZpu2zoQzxrzh6Tyk-] disk not present in database.
[AccurateRip ID: 00080a63-0024d305-5008d005] disk not present in database.
Track Peak [ CRC32 ] [W/O NULL] [ LOG ]
-- 97,0 [6BAF6E04] [B2E612D8]
01 97,0 [F8AE60D1] [4EAA5EC8] W/O NULL : offset -588
02 95,3 [9B204DFD] [16CE115F] W/O NULL : offset -588
03 95,7 [D7692C20] [36C73F7F] W/O NULL : offset -588
04 96,5 [6659417A] [487189BC] W/O NULL : offset -588
05 97,0 [57C3E918] [682EFBA1] [0B861118]
 
Об альбоме (сборнике)
Une sorte de disque posthume, puisque ce Three for Freedom nous donne les dernières nouvelles d’un pianiste d’exception, ami de Lester Young et Billie Holiday : Mal Waldron, décédé au début des années 2000. C’est l’immense Archie Shepp qui se charge de compléter le trio, au prix d’une participation exemplaire, entre feulements intempestifs et jeu langoureux brillant de mille éclats. Tchangodei, comme à son habitude, fait des pieds et des mains pour arriver à contrôler le flux musical de ses deux partenaires, en distillant un jeu subtil et coloré. Belles échappées sonores qui augurent d’une œuvre protéiforme passionnant.
Any questions -> support@pro-jazz.com. По всем вопросам пишите -> support@pro-jazz.com
02:31
218
Нет комментариев. Ваш будет первым!