Вы используете незарегистрированную версию компонента "Вкладки"!

Поиск

(Free Jazz) Mike Osborne Trio (Harry Miller, Louis Moholo) - All Night Long - 2008, FLAC (image+.cue), lossless

(Free Jazz) Mike Osborne Trio (Harry Miller, Louis Moholo) - All Night Long - 2008, FLAC (image+.cue), lossless
Треклист:
Mike Osborne Trio / All Night Long
Жанр: Free Jazz
Страна-производитель диска: UK
Год издания: 2008
Издатель (лейбл): Ogun Recording Ltd.
Номер по каталогу: OGCD 029
Аудиокодек: FLAC (*.flac)
Тип рипа: image+.cue
Битрейт аудио: lossless
Продолжительность: 78:15
Источник (релизер): cd
Наличие сканов в содержимом раздачи: нет
Треклист:
1. All Night Long > Rivers 7:15
2. Round Midnight 4:56
3. Scotch Pearl 8:51
4. Waltz 7:06
5. Ken's Tune > Country Bounce > All Night Long > Trio Trio 23:26
6. Scotch Pearl 4:04
7. Now and Then, Here and Now 22:38
 
Лог создания рипа
Exact Audio Copy V1.0 beta 2 from 29. April 2011
EAC extraction logfile from 19. July 2012, 17:10
Mike Osborne Trio / All Night Long
Used drive : Optiarc DVD RW AD-7170A Adapter: 0 ID: 0
Read mode : Secure
Utilize accurate stream : Yes
Defeat audio cache : Yes
Make use of C2 pointers : No
Read offset correction : 48
Overread into Lead-In and Lead-Out : No
Fill up missing offset samples with silence : Yes
Delete leading and trailing silent blocks : No
Null samples used in CRC calculations : Yes
Used interface : Native Win32 interface for Win NT & 2000
Used output format : User Defined Encoder
Selected bitrate : 320 kBit/s
Quality : High
Add ID3 tag : No
Command line compressor : C:\Program Files\Exact Audio Copy\Flac\flac.exe
Additional command line options : -V -8 -T "Date=%year%" -T "Genre=%genre%" %source%
TOC of the extracted CD
Track | Start | Length | Start sector | End sector
---------------------------------------------------------
1 | 0:00.00 | 7:15.20 | 0 | 32644
2 | 7:15.20 | 4:55.37 | 32645 | 54806
3 | 12:10.57 | 8:51.16 | 54807 | 94647
4 | 21:01.73 | 7:05.34 | 94648 | 126556
5 | 28:07.32 | 23:26.07 | 126557 | 232013
6 | 51:33.39 | 4:03.50 | 232014 | 250288
7 | 55:37.14 | 22:38.17 | 250289 | 352155
Range status and errors
Selected range
Filename K:\ЕАС\Mike Osborne Trio - All Night Long.wav
Peak level 100.0 %
Extraction speed 2.3 X
Range quality 100.0 %
Test CRC 86584AAD
Copy CRC 86584AAD
Copy OK
No errors occurred
AccurateRip summary
Track 1 accurately ripped (confidence 1) [3439E585] (AR v1)
Track 2 accurately ripped (confidence 1) [BDCBFFD1] (AR v1)
Track 3 accurately ripped (confidence 1) [2F1ED46D] (AR v1)
Track 4 accurately ripped (confidence 1) [0F79668C] (AR v1)
Track 5 accurately ripped (confidence 1) [B6B0F5D2] (AR v1)
Track 6 accurately ripped (confidence 1) [FD3D13B2] (AR v1)
Track 7 accurately ripped (confidence 1) [61E12B57] (AR v1)
All tracks accurately ripped
End of status report
==== Log checksum 1578F6681BFE9A5EEE3B281CDD0BF32622C6E7EBCF5104DCD31D11ABCDD66741 ====
 
Содержание индексной карты (.CUE)
REM GENRE Jazz
REM DATE 2008
REM DISCID 63125707
REM COMMENT "ExactAudioCopy v1.0b2"
PERFORMER "Mike Osborne Trio"
TITLE "All Night Long"
FILE "Mike Osborne Trio - All Night Long.flac" WAVE
TRACK 01 AUDIO
TITLE "All Night Long > Rivers"
PERFORMER "Mike Osborne Trio"
ISRC GBCZP0802901
INDEX 01 00:00:00
TRACK 02 AUDIO
TITLE "Round Midnight"
PERFORMER "Mike Osborne Trio"
ISRC GBCZP0802902
INDEX 01 07:15:20
TRACK 03 AUDIO
TITLE "Scotch Pearl"
PERFORMER "Mike Osborne Trio"
ISRC GBCZP0802903
INDEX 01 12:10:57
TRACK 04 AUDIO
TITLE "Waltz"
PERFORMER "Mike Osborne Trio"
ISRC GBCZP0802904
INDEX 01 21:01:73
TRACK 05 AUDIO
TITLE "Ken's Tune > Country Bounce > All Night Long > Trio Trio"
PERFORMER "Mike Osborne Trio"
ISRC GBCZP0802905
INDEX 01 28:07:32
TRACK 06 AUDIO
TITLE "Scotch Pearl"
PERFORMER "Mike Osborne Trio"
ISRC GBCZP0802906
INDEX 01 51:33:39
TRACK 07 AUDIO
TITLE "Now and Then, Here and Now"
PERFORMER "Mike Osborne Trio"
ISRC GBCZP0802907
INDEX 00 55:32:14
INDEX 01 55:37:14
Доп. информация: Tracks 1-6 recorded live at Willisau, Switzerland on April 13, 1975 by Walter Troxler. Tracks 1-5 previous released on LP in 1976 on the Ogun label as OG700. Track 6 previously unreleased. Track 7 recorded live in Europe, previously unreleased.
 
Состав
Mike Osborne-alto sax
Louis Moholo-drums
Harry Miller-bass
Any questions -> support@pro-jazz.com. По всем вопросам пишите -> support@pro-jazz.com
02:30
155
Нет комментариев. Ваш будет первым!