Вы используете незарегистрированную версию компонента "Вкладки"!

Поиск

(Free Improvisation) Paul Hession / Alan Wilkinson / Simon H. Fell - Two Falls & A Submission - 2011, FLAC (image+.cue), lossless

(Free Improvisation) Paul Hession / Alan Wilkinson / Simon H. Fell - Two Falls & A Submission - 2011, FLAC (image+.cue), lossless
Треклист:
Hession / Wilkinson / Fell / Two Falls & A Submission
Жанр: Free Improvisation
Страна-производитель диска: UK
Год издания: 2011
Издатель (лейбл): Bo'Weavil Recordings
Номер по каталогу: Weavil44CD
Аудиокодек: FLAC (*.flac)
Тип рипа: image+.cue
Битрейт аудио: lossless
Продолжительность: 61:09
Источник (релизер): cd
Наличие сканов в содержимом раздачи: нет
Треклист:
1 First Fall 32:34
2 The Submission 15:43
3 Second Fall 12:51
 
Лог создания рипа
Exact Audio Copy V1.0 beta 2 from 29. April 2011
EAC extraction logfile from 19. July 2012, 9:59
Hession Wilkinson Fell / Two Falls & A Submission
Used drive : Optiarc DVD RW AD-7170A Adapter: 0 ID: 0
Read mode : Secure
Utilize accurate stream : Yes
Defeat audio cache : Yes
Make use of C2 pointers : No
Read offset correction : 48
Overread into Lead-In and Lead-Out : No
Fill up missing offset samples with silence : Yes
Delete leading and trailing silent blocks : No
Null samples used in CRC calculations : Yes
Used interface : Native Win32 interface for Win NT & 2000
Used output format : User Defined Encoder
Selected bitrate : 320 kBit/s
Quality : High
Add ID3 tag : No
Command line compressor : C:\Program Files\Exact Audio Copy\Flac\flac.exe
Additional command line options : -V -8 -T "Date=%year%" -T "Genre=%genre%" %source%
TOC of the extracted CD
Track | Start | Length | Start sector | End sector
---------------------------------------------------------
1 | 0:00.00 | 32:34.71 | 0 | 146620
2 | 32:34.71 | 15:43.11 | 146621 | 217356
3 | 48:18.07 | 12:51.68 | 217357 | 275249
Range status and errors
Selected range
Filename K:\ЕАС\Hession Wilkinson Fell - Two Falls & A Submission.wav
Peak level 100.0 %
Extraction speed 2.0 X
Range quality 100.0 %
Test CRC 4275FBF2
Copy CRC 4275FBF2
Copy OK
No errors occurred
AccurateRip summary
Track 1 accurately ripped (confidence 1) [672AF8AB] (AR v1)
Track 2 accurately ripped (confidence 1) [E239312E] (AR v1)
Track 3 accurately ripped (confidence 1) [CDD3936C] (AR v1)
All tracks accurately ripped
End of status report
==== Log checksum 5892FF3918CD72D63D65A1521857331AC1E9E23E8DA6B891FF9F5CBDDF41CF09 ====
 
Содержание индексной карты (.CUE)
REM GENRE Jazz
REM DATE 2011
REM DISCID 220E5603
REM COMMENT "ExactAudioCopy v1.0b2"
PERFORMER "Hession Wilkinson Fell"
TITLE "Two Falls & A Submission"
FILE "Hession Wilkinson Fell - Two Falls & A Submission.flac" WAVE
TRACK 01 AUDIO
TITLE "Hession \ Wilkinson \ Fell"
PERFORMER "First Fall"
ISRC GBRCR1104201
INDEX 01 00:00:00
TRACK 02 AUDIO
TITLE "Hession \ Wilkinson \ Fell"
PERFORMER "The Submission"
ISRC GBRCR1104202
INDEX 01 32:34:71
TRACK 03 AUDIO
TITLE "Hession \ Wilkinson \ Fell"
PERFORMER "Second Fall"
ISRC GBRCR1104203
INDEX 01 48:18:07
Доп. информация: Recorded 31 March 2010 at The Queen's Head, Monmouth.
 
Состав
Alto Saxophone, Baritone Saxophone – Alan Wilkinson
Double Bass – Simon H. Fell
Drums – Paul Hession
Any questions -> support@pro-jazz.com. По всем вопросам пишите -> support@pro-jazz.com
02:30
203
Нет комментариев. Ваш будет первым!