Вы используете незарегистрированную версию компонента "Вкладки"!

Поиск

(free.jazz) Steve Lacy, Roswell Rudd, Henry Grimes‎, Dennis Charles - School Days 1975, FLAC (tracks+.cue), lossless

(free.jazz) Steve Lacy, Roswell Rudd, Henry Grimes‎, Dennis Charles - School Days 1975, FLAC (tracks+.cue), lossless
Треклист:


Steve Lacy, Roswell Rudd, Henry Grimes‎, Dennis Charles‎
School Days 1975
Жанр: free.jazz
Год выпуска: 1975
Издатель (лейбл):hatOLOGY 578
Формат: FLAC (tracks+.cue)
Битрейт аудио: lossless
Продолжительность
Источник: what.cd
Dennis Charles‎
Henry Grimes‎
Roswell Rudd‎
Steve Lacy‎

tracks

01 Bye-Ya .flac
02 Brilliant Corners
03 Monk's Dream
04 Monk's Mood
05 Ba-Lue Bolivar
06 Ba-Lues-Are Skippy
07 Pannonica


 
.log
Exact Audio Copy V1.0 beta 3 from 29. August 2011
EAC extraction logfile from 14. July 2012, 20:32
Steve Lacy-Roswell Rudd Quartet / School Days
Used drive : TSSTcorpCDDVDW SE-S084F Adapter: 1 ID: 0
Read mode : Secure
Utilize accurate stream : Yes
Defeat audio cache : Yes
Make use of C2 pointers : No
Read offset correction : 6
Overread into Lead-In and Lead-Out : No
Fill up missing offset samples with silence : Yes
Delete leading and trailing silent blocks : No
Null samples used in CRC calculations : Yes
Used interface : Native Win32 interface for Win NT & 2000
Gap handling : Appended to previous track
Used output format : User Defined Encoder
Selected bitrate : 1024 kBit/s
Quality : High
Add ID3 tag : No
Command line compressor : C:\Program Files (x86)\Exact Audio Copy\FLAC\FLAC.EXE
Additional command line options : -8 -V -T "ARTIST=%artist%" -T "TITLE=%title%" -T "ALBUM=%albumtitle%" -T "DATE=%year%" -T "TRACKNUMBER=%tracknr%" -T "GENRE=%genre%" -T "PERFORMER=%albuminterpret%" -T "COMPOSER=%composer%" %haslyrics%--tag-from-file=LYRICS="%lyricsfile%"%haslyrics% -T "ALBUMARTIST=%albumartist%" -T "DISCNUMBER=%cdnumber%" -T "TOTALDISCS=%totalcds%" -T "TOTALTRACKS=%numtracks%" -T "COMMENT=%comment%" %source% -o %dest%
TOC of the extracted CD
Track | Start | Length | Start sector | End sector
---------------------------------------------------------
1 | 0:00.00 | 9:04.62 | 0 | 40861
2 | 9:04.62 | 9:50.00 | 40862 | 85111
3 | 18:54.62 | 7:18.00 | 85112 | 117961
4 | 26:12.62 | 8:13.00 | 117962 | 154936
5 | 34:25.62 | 10:28.00 | 154937 | 202036
6 | 44:53.62 | 6:20.00 | 202037 | 230536
7 | 51:13.62 | 3:24.13 | 230537 | 245849
Track 1
Filename F:\Musique Flac\[Label] HAT HUT Records\Steve Lacy-Roswell Rudd Quartet - School Days\01 - Bye-Ya .wav
Pre-gap length 0:00:02.00
Peak level 90.7 %
Extraction speed 2.6 X
Track quality 99.9 %
Test CRC C07E34A3
Copy CRC C07E34A3
Accurately ripped (confidence 3) [2905D35F] (AR v1)
Copy OK
Track 2
Filename F:\Musique Flac\[Label] HAT HUT Records\Steve Lacy-Roswell Rudd Quartet - School Days\02 - Brilliant Corners .wav
Peak level 91.3 %
Extraction speed 3.5 X
Track quality 100.0 %
Test CRC 7CD8CD5F
Copy CRC 7CD8CD5F
Accurately ripped (confidence 2) [E466CCE9] (AR v1)
Copy OK
Track 3
Filename F:\Musique Flac\[Label] HAT HUT Records\Steve Lacy-Roswell Rudd Quartet - School Days\03 - Monk's Dream .wav
Peak level 91.5 %
Extraction speed 3.8 X
Track quality 100.0 %
Test CRC 7E7E812F
Copy CRC 7E7E812F
Accurately ripped (confidence 3) [FF5E805B] (AR v1)
Copy OK
Track 4
Filename F:\Musique Flac\[Label] HAT HUT Records\Steve Lacy-Roswell Rudd Quartet - School Days\04 - Monk's Mood .wav
Peak level 91.0 %
Extraction speed 3.6 X
Track quality 99.9 %
Test CRC 56001E2B
Copy CRC 56001E2B
Accurately ripped (confidence 3) [7366160A] (AR v1)
Copy OK
Track 5
Filename F:\Musique Flac\[Label] HAT HUT Records\Steve Lacy-Roswell Rudd Quartet - School Days\05 - Ba-Lue Bolivar .wav
Peak level 91.2 %
Extraction speed 4.7 X
Track quality 100.0 %
Test CRC 48230076
Copy CRC 48230076
Accurately ripped (confidence 3) [4A47E636] (AR v1)
Copy OK
Track 6
Filename F:\Musique Flac\[Label] HAT HUT Records\Steve Lacy-Roswell Rudd Quartet - School Days\06 - Ba-Lues-Are Skippy .wav
Peak level 91.4 %
Extraction speed 4.7 X
Track quality 100.0 %
Test CRC 2CB426B0
Copy CRC 2CB426B0
Accurately ripped (confidence 3) [B4F1AD86] (AR v1)
Copy OK
Track 7
Filename F:\Musique Flac\[Label] HAT HUT Records\Steve Lacy-Roswell Rudd Quartet - School Days\07 - Pannonica .wav
Peak level 90.8 %
Extraction speed 3.5 X
Track quality 99.9 %
Test CRC C2887672
Copy CRC C2887672
Accurately ripped (confidence 3) [DC9A3DBF] (AR v1)
Copy OK
All tracks accurately ripped
No errors occurred
End of status report
---- CUETools DB Plugin V2.1.3
[CTDB TOCID: KtgNDg0rUeNoQyrdkwV1f7RmYGA-] found, Submit result: KtgNDg0rUeNoQyrdkwV1f7RmYGA- has been confirmed
[f2923705] (1/1) Accurately ripped
==== Log checksum F93BB8FBDF5488DA8672537919478E27BCF0544803E56D19BD188218149DA9DD ====
 
.cue
REM GENRE Jazz
REM DATE 1975
REM DISCID 610CCE07
REM COMMENT "ExactAudioCopy v1.0b3"
CATALOG 0000000000000
PERFORMER "Steve Lacy-Roswell Rudd Quartet"
TITLE "School Days"
FILE "01 - Bye-Ya .wav" WAVE
TRACK 01 AUDIO
TITLE "Bye-Ya"
PERFORMER "Steve Lacy-Roswell Rudd Quartet"
INDEX 01 00:00:00
FILE "02 - Brilliant Corners .wav" WAVE
TRACK 02 AUDIO
TITLE "Brilliant Corners"
PERFORMER "Steve Lacy-Roswell Rudd Quartet"
INDEX 01 00:00:00
FILE "03 - Monk's Dream .wav" WAVE
TRACK 03 AUDIO
TITLE "Monk's Dream"
PERFORMER "Steve Lacy-Roswell Rudd Quartet"
INDEX 01 00:00:00
FILE "04 - Monk's Mood .wav" WAVE
TRACK 04 AUDIO
TITLE "Monk's Mood"
PERFORMER "Steve Lacy-Roswell Rudd Quartet"
INDEX 01 00:00:00
FILE "05 - Ba-Lue Bolivar .wav" WAVE
TRACK 05 AUDIO
TITLE "Ba-Lue Bolivar"
PERFORMER "Steve Lacy-Roswell Rudd Quartet"
INDEX 01 00:00:00
FILE "06 - Ba-Lues-Are Skippy .wav" WAVE
TRACK 06 AUDIO
TITLE "Ba-Lues-Are Skippy"
PERFORMER "Steve Lacy-Roswell Rudd Quartet"
INDEX 01 00:00:00
FILE "07 - Pannonica .wav" WAVE
TRACK 07 AUDIO
TITLE "Pannonica"
PERFORMER "Steve Lacy-Roswell Rudd Quartet"
INDEX 01 00:00:00

другие релизы
Any questions -> support@pro-jazz.com. По всем вопросам пишите -> support@pro-jazz.com
02:29
237
Нет комментариев. Ваш будет первым!