Вы используете незарегистрированную версию компонента "Вкладки"!

Поиск

(Free-Jazz) Szelevenyi Akos - Szelevenyi Akos - 2004, FLAC (tracks+.cue), lossless

(Free-Jazz) Szelevenyi Akos - Szelevenyi Akos - 2004, FLAC (tracks+.cue), lossless
Треклист:
Szelevenyi Akos (Akosh S.) - Szelevenyi Akos
Жанр: Free-Jazz
Год выпуска диска: 2004
Производитель диска: Hungary
Label: Harmonia Art Centre HCD 284
Аудио кодек: FLAC
Тип рипа: tracks+.cue + Artwork
Битрейт аудио: lossless
Продолжительность: 45:40
Происхождение рипа: собственный рип с оригинального диска.
Треклист:
1. Este lett (inspired by "La nuit sera calme [The Night Will be Calm]" by Romain Gary)
2. Lerakat
3. Utazólevél
Доп. информация:
Szelevényi Ákos - tenor saxophone, bassclarinet
Christian Brazier - double bass
Gilles Campaux - drums
Joe Doherty - alto saxophone on #3
Recorded in early 2000, Marseille, France.
 
EAC log
Exact Audio Copy V0.99 prebeta 5 from 4. May 2009
EAC extraction logfile from 23. August 2010, 12:29
Szelevenyi Akos / -
Used drive : HL-DT-STDVD-ROM GDR8162B Adapter: 1 ID: 1
Read mode : Secure
Utilize accurate stream : Yes
Defeat audio cache : Yes
Make use of C2 pointers : No
Read offset correction : 102
Overread into Lead-In and Lead-Out : Yes
Fill up missing offset samples with silence : Yes
Delete leading and trailing silent blocks : No
Null samples used in CRC calculations : Yes
Used interface : Installed external ASPI interface
Gap handling : Appended to previous track
Used output format : User Defined Encoder
Selected bitrate : 768 kBit/s
Quality : High
Add ID3 tag : No
Command line compressor : C:\Program Files\FLAC\flac.exe
Additional command line options : -V -8 -T "ARTIST=%a" -T "TITLE=%t" -T "ALBUM=%g" -T "TRACKNUMBER=%n" -T "GENRE=%m" %s
TOC of the extracted CD
Track | Start | Length | Start sector | End sector
---------------------------------------------------------
1 | 0:00.00 | 16:36.04 | 0 | 74703
2 | 16:36.04 | 7:19.08 | 74704 | 107636
3 | 23:55.12 | 21:45.01 | 107637 | 205512
Track 1
Filename C:\ru up\szelevenyi akos\01 - Este lett.wav
Pre-gap length 0:00:02.00
Peak level 96.6 %
Track quality 100.0 %
Test CRC 55ABF3AD
Copy CRC 55ABF3AD
Accurately ripped (confidence 1) [DB4BD782]
Copy OK
Track 2
Filename C:\ru up\szelevenyi akos\02 - Lerakat.wav
Pre-gap length 0:00:04.00
Peak level 89.1 %
Track quality 100.0 %
Test CRC 386E396F
Copy CRC 386E396F
Accurately ripped (confidence 1) [80AF0B7D]
Copy OK
Track 3
Filename C:\ru up\szelevenyi akos\03 - Utazolevel.wav
Peak level 96.6 %
Track quality 99.9 %
Test CRC 9C1C2874
Copy CRC 9C1C2874
Accurately ripped (confidence 1) [B8A471D4]
Copy OK
All tracks accurately ripped
No errors occurred
End of status report
 
cue
REM GENRE Free-Jazz
REM DATE 2000
REM DISCID 2B0AB403
REM COMMENT "ExactAudioCopy v0.99pb5"
PERFORMER "Szelevenyi Akos"
TITLE "Szelevenyi Akos"
FILE "01 - Este lett.wav" WAVE
TRACK 01 AUDIO
TITLE "Este lett"
PERFORMER "Szelevenyi Akos"
INDEX 01 00:00:00
TRACK 02 AUDIO
TITLE "Lerakat"
PERFORMER "Szelevenyi Akos"
INDEX 00 16:32:04
FILE "02 - Lerakat.wav" WAVE
INDEX 01 00:00:00
FILE "03 - Utazolevel.wav" WAVE
TRACK 03 AUDIO
TITLE "Utazolevel"
PERFORMER "Szelevenyi Akos"
INDEX 01 00:00:00
http://www.akosh-s.com
По всем вопросам пишите личное сообщение пользователю M0p94ok.
02:38
164
Нет комментариев. Ваш будет первым!