Поиск

(Avant Garde, Ethnic, Free Improvisation) Akosh S. Solo - Aki - 2004, FLAC (tracks+.cue), lossless

Треклист:
Akosh S. Solo - Aki
Жанр: Avant Garde, Ethnic, Free Improvisation
Год выпуска диска: 2004
Производитель диска: France
Label: Universal Music 981 860-9
Аудио кодек: FLAC
Тип рипа: tracks+.cue + Artwork
Битрейт аудио: lossless
Продолжительность: 51:55
Происхождение рипа: собственный рип с оригинального диска.
Треклист:
01. tárva 05'40
02. apáink 04'47
03. fuvallat 03'47
04. ünnep 10'19
05. feladat 14'16
06. ég 03'24
07. világi papok 09'40
All compositions by Akosh Szelevényi.
Доп. информация:
Akosh Szelevényi - taragot (tárogató), kalimba, recorder (furulya), soprano saxophone, metal clarinet, voice.
Solo recording at the church "Mindszentek" of Vámosszabadi, Hungary, 22 September 2003.
Engineer: Szabolcs Kapui
Mastering: David Mascunan
Cover painting : Marko Jakse : "Our father, who art in heaven"
 
EAC log
Exact Audio Copy V0.99 prebeta 5 from 4. May 2009
EAC extraction logfile from 23. August 2010, 12:52
Akosh S. Solo / Aki
Used drive : HL-DT-STDVD-ROM GDR8162B Adapter: 1 ID: 1
Read mode : Secure
Utilize accurate stream : Yes
Defeat audio cache : Yes
Make use of C2 pointers : No
Read offset correction : 102
Overread into Lead-In and Lead-Out : Yes
Fill up missing offset samples with silence : Yes
Delete leading and trailing silent blocks : No
Null samples used in CRC calculations : Yes
Used interface : Installed external ASPI interface
Gap handling : Appended to previous track
Used output format : User Defined Encoder
Selected bitrate : 768 kBit/s
Quality : High
Add ID3 tag : No
Command line compressor : C:\Program Files\FLAC\flac.exe
Additional command line options : -V -8 -T "ARTIST=%a" -T "TITLE=%t" -T "ALBUM=%g" -T "TRACKNUMBER=%n" -T "GENRE=%m" %s
TOC of the extracted CD
Track | Start | Length | Start sector | End sector
---------------------------------------------------------
1 | 0:00.00 | 5:40.26 | 0 | 25525
2 | 5:40.26 | 4:47.13 | 25526 | 47063
3 | 10:27.39 | 3:47.59 | 47064 | 64147
4 | 14:15.23 | 10:19.37 | 64148 | 110609
5 | 24:34.60 | 14:16.18 | 110610 | 174827
6 | 38:51.03 | 3:24.12 | 174828 | 190139
7 | 42:15.15 | 9:40.49 | 190140 | 233688
Track 1
Filename C:\ru up\akosh s solo aki\01 - Tarva.wav
Pre-gap length 0:00:02.00
Peak level 98.8 %
Track quality 99.9 %
Test CRC 68006720
Copy CRC 68006720
Accurately ripped (confidence 1) [CDA04543]
Copy OK
Track 2
Filename C:\ru up\akosh s solo aki\02 - Apaink.wav
Pre-gap length 0:00:02.59
Peak level 98.8 %
Track quality 100.0 %
Test CRC 3837213B
Copy CRC 3837213B
Accurately ripped (confidence 1) [AFE45140]
Copy OK
Track 3
Filename C:\ru up\akosh s solo aki\03 - Fuvallat.wav
Pre-gap length 0:00:03.24
Peak level 87.9 %
Track quality 99.9 %
Test CRC E6A95B6B
Copy CRC E6A95B6B
Accurately ripped (confidence 1) [CA6E8BD8]
Copy OK
Track 4
Filename C:\ru up\akosh s solo aki\04 - Unnep.wav
Pre-gap length 0:00:03.24
Peak level 98.8 %
Track quality 100.0 %
Test CRC C33314C6
Copy CRC C33314C6
Accurately ripped (confidence 1) [E5F546F1]
Copy OK
Track 5
Filename C:\ru up\akosh s solo aki\05 - Feladat.wav
Pre-gap length 0:00:02.59
Peak level 74.9 %
Track quality 100.0 %
Test CRC 5E3424E8
Copy CRC 5E3424E8
Accurately ripped (confidence 1) [6A9574EA]
Copy OK
Track 6
Filename C:\ru up\akosh s solo aki\06 - Eg.wav
Peak level 31.6 %
Track quality 100.0 %
Test CRC 31602890
Copy CRC 31602890
Accurately ripped (confidence 1) [1EACC45A]
Copy OK
Track 7
Filename C:\ru up\akosh s solo aki\07 - Vilagi papok.wav
Pre-gap length 0:00:04.24
Peak level 98.8 %
Track quality 100.0 %
Test CRC 1E7DABF7
Copy CRC 1E7DABF7
Accurately ripped (confidence 1) [517A9AE8]
Copy OK
All tracks accurately ripped
No errors occurred
End of status report
 
cue
REM GENRE Jazz
REM DATE 2003
REM DISCID 5E0C2B07
REM COMMENT "ExactAudioCopy v0.99pb5"
PERFORMER "Akosh S. Solo"
TITLE "Aki"
FILE "01 - Tarva.wav" WAVE
TRACK 01 AUDIO
TITLE "Tarva"
PERFORMER "Akosh S. Solo"
ISRC FRZ020381410
FLAGS DCP
INDEX 01 00:00:00
TRACK 02 AUDIO
TITLE "Apaink"
PERFORMER "Akosh S. Solo"
ISRC FRZ020381420
FLAGS DCP
INDEX 00 05:37:42
FILE "02 - Apaink.wav" WAVE
INDEX 01 00:00:00
TRACK 03 AUDIO
TITLE "Fuvallat"
PERFORMER "Akosh S. Solo"
ISRC FRZ020381430
FLAGS DCP
INDEX 00 04:43:64
FILE "03 - Fuvallat.wav" WAVE
INDEX 01 00:00:00
TRACK 04 AUDIO
TITLE "Unnep"
PERFORMER "Akosh S. Solo"
ISRC FRZ020381440
FLAGS DCP
INDEX 00 03:44:35
FILE "04 - Unnep.wav" WAVE
INDEX 01 00:00:00
TRACK 05 AUDIO
TITLE "Feladat"
PERFORMER "Akosh S. Solo"
ISRC FRZ020381450
FLAGS DCP
INDEX 00 10:16:53
FILE "05 - Feladat.wav" WAVE
INDEX 01 00:00:00
FILE "06 - Eg.wav" WAVE
TRACK 06 AUDIO
TITLE "Eg"
PERFORMER "Akosh S. Solo"
ISRC FRZ020381460
FLAGS DCP
INDEX 01 00:00:00
TRACK 07 AUDIO
TITLE "Vilagi papok"
PERFORMER "Akosh S. Solo"
ISRC FRZ020381470
FLAGS DCP
INDEX 00 03:19:63
FILE "07 - Vilagi papok.wav" WAVE
INDEX 01 00:00:00
Other Szelevényi-torrents are working on this tracker:
http://rutracker.org/forum/viewtopic.php?t=2130279
http://rutracker.org/forum/viewtopic.php?t=2088492
http://rutracker.org/forum/viewtopic.php?t=1430516
http://rutracker.org/forum/viewtopic.php?t=1159645
По всем вопросам пишите личное сообщение пользователю M0p94ok.
02:37
163
Нет комментариев. Ваш будет первым!