Вы используете незарегистрированную версию компонента "Вкладки"!

Поиск

(Free-Jazz) Joe McPhee & Bill Smith Ensemble - Visitation - 2003, FLAC (tracks+.cue), lossless

Треклист:
Joe McPhee & Bill Smith Ensemble - Visitation
Жанр: Free-Jazz
Год выпуска диска: 2003
Производитель диска: USA
Label: Boxholder Records BXH 034
Аудио кодек: FLAC
Тип рипа: tracks+.cue + Artwork
Битрейт аудио: lossless
Продолжительность: 43:46
Происхождение рипа: собственный рип с оригинального диска.
Треклист:
1. Exuma [04:15]
2. Eleuthera [10:13]
3. Home At Last [07:05]
4. Ghosts [07:14]
5. If I Don’t Fall [05:40]
6. A-Configuration [08:17]
Доп. информация:
Joe McPhee - flugelhorn, pocket trumpet, tenor and soprano saxophones
Bill Smith - soprano, sopranino and alto saxophones
David Lee - bass
David Prentice - violin
Richard Bannard - drums
Recorded at McClear Place Studios, Toronto, Ontario, Canada, on November 6, 1983, by Phil Sheridan.
Originally manufactured and released in March, 1985 by Sackville Records, Canada.
 
EAC log
Exact Audio Copy V0.99 prebeta 5 from 4. May 2009
EAC extraction logfile from 23. August 2010, 16:21
Joe McPhee / Visitation
Used drive : HL-DT-STDVD-ROM GDR8162B Adapter: 1 ID: 1
Read mode : Secure
Utilize accurate stream : Yes
Defeat audio cache : Yes
Make use of C2 pointers : No
Read offset correction : 102
Overread into Lead-In and Lead-Out : Yes
Fill up missing offset samples with silence : Yes
Delete leading and trailing silent blocks : No
Null samples used in CRC calculations : Yes
Used interface : Installed external ASPI interface
Gap handling : Appended to previous track
Used output format : User Defined Encoder
Selected bitrate : 768 kBit/s
Quality : High
Add ID3 tag : No
Command line compressor : C:\Program Files\FLAC\flac.exe
Additional command line options : -V -8 -T "ARTIST=%a" -T "TITLE=%t" -T "ALBUM=%g" -T "TRACKNUMBER=%n" -T "GENRE=%m" %s
TOC of the extracted CD
Track | Start | Length | Start sector | End sector
---------------------------------------------------------
1 | 0:00.00 | 4:23.65 | 0 | 19789
2 | 4:23.65 | 10:21.63 | 19790 | 66427
3 | 14:45.53 | 7:14.51 | 66428 | 99028
4 | 22:00.29 | 7:22.03 | 99029 | 132181
5 | 29:22.32 | 5:47.40 | 132182 | 158246
6 | 35:09.72 | 8:24.30 | 158247 | 196076
Track 1
Filename C:\ru up\joe mcphee visitation\01 - Exuma.wav
Pre-gap length 0:00:02.00
Peak level 86.2 %
Track quality 100.0 %
Test CRC 08FB098B
Copy CRC 08FB098B
Track not present in AccurateRip database
Copy OK
Track 2
Filename C:\ru up\joe mcphee visitation\02 - Eleuthera.wav
Pre-gap length 0:00:04.00
Peak level 92.4 %
Track quality 100.0 %
Test CRC 0C73A2B3
Copy CRC 0C73A2B3
Track not present in AccurateRip database
Copy OK
Track 3
Filename C:\ru up\joe mcphee visitation\03 - Home at Last.wav
Pre-gap length 0:00:04.00
Peak level 100.0 %
Track quality 99.9 %
Test CRC 48E00826
Copy CRC 48E00826
Track not present in AccurateRip database
Copy OK
Track 4
Filename C:\ru up\joe mcphee visitation\04 - Ghosts.wav
Pre-gap length 0:00:04.00
Peak level 68.6 %
Track quality 100.0 %
Test CRC 1E69AF35
Copy CRC 1E69AF35
Track not present in AccurateRip database
Copy OK
Track 5
Filename C:\ru up\joe mcphee visitation\05 - If I Don't Fall.wav
Pre-gap length 0:00:04.00
Peak level 76.0 %
Track quality 100.0 %
Test CRC 017B4448
Copy CRC 017B4448
Track not present in AccurateRip database
Copy OK
Track 6
Filename C:\ru up\joe mcphee visitation\06 - A-Configuration.wav
Pre-gap length 0:00:04.00
Peak level 62.3 %
Track quality 99.9 %
Test CRC FB026D1D
Copy CRC FB026D1D
Track not present in AccurateRip database
Copy OK
None of the tracks are present in the AccurateRip database
No errors occurred
End of status report
 
cue
REM GENRE "Free Jazz"
REM DATE 2003
REM DISCID 450A3606
REM COMMENT "ExactAudioCopy v0.99pb5"
PERFORMER "Joe McPhee"
TITLE "Visitation"
FILE "01 - Exuma.wav" WAVE
TRACK 01 AUDIO
TITLE "Exuma"
PERFORMER "Joe McPhee"
INDEX 01 00:00:00
TRACK 02 AUDIO
TITLE "Eleuthera"
PERFORMER "Joe McPhee"
INDEX 00 04:19:65
FILE "02 - Eleuthera.wav" WAVE
INDEX 01 00:00:00
TRACK 03 AUDIO
TITLE "Home at Last"
PERFORMER "Joe McPhee"
INDEX 00 10:17:63
FILE "03 - Home at Last.wav" WAVE
INDEX 01 00:00:00
TRACK 04 AUDIO
TITLE "Ghosts"
PERFORMER "Joe McPhee"
INDEX 00 07:10:51
FILE "04 - Ghosts.wav" WAVE
INDEX 01 00:00:00
TRACK 05 AUDIO
TITLE "If I Don't Fall"
PERFORMER "Joe McPhee"
INDEX 00 07:18:03
FILE "05 - If I Don't Fall.wav" WAVE
INDEX 01 00:00:00
TRACK 06 AUDIO
TITLE "A-Configuration"
PERFORMER "Joe McPhee"
INDEX 00 05:43:40
FILE "06 - A-Configuration.wav" WAVE
INDEX 01 00:00:00
Any questions -> support@pro-jazz.com. По всем вопросам пишите -> support@pro-jazz.com
02:38
159
Нет комментариев. Ваш будет первым!