Вы используете незарегистрированную версию компонента "Вкладки"!

Поиск

(Free Jazz) Steve Lacy - Moon - 2002, FLAC (tracks+.cue), lossless

(Free Jazz) Steve Lacy - Moon - 2002, FLAC (tracks+.cue), lossless
Треклист:
Steve Lacy - Moon
Жанр: Free Jazz
Страна-производитель диска: Italy
Год издания: 2002
Издатель (лейбл): Sunspots
Номер по каталогу: SPOT 529
Аудиокодек: FLAC (*.flac)
Тип рипа: tracks+.cue
Битрейт аудио: lossless
Продолжительность: 30 min.
Источник (релизер): собственный рип с оригинального диска.
Наличие сканов в содержимом раздачи: да
Треклист:
01. Hit 5:04
02. Note 4:32
03. Moon 7:39
04. Laugh 3:53
05. The Breath 8:07
 
Лог создания рипа
Exact Audio Copy V1.0 beta 3 from 29. August 2011
EAC extraction logfile from 23. March 2013, 10:17
Steve Lacy / Moon
Used drive : TSSTcorpCDDVDW SH-S222A Adapter: 1 ID: 0
Read mode : Secure
Utilize accurate stream : Yes
Defeat audio cache : Yes
Make use of C2 pointers : No
Read offset correction : 6
Overread into Lead-In and Lead-Out : No
Fill up missing offset samples with silence : Yes
Delete leading and trailing silent blocks : No
Null samples used in CRC calculations : Yes
Used interface : Native Win32 interface for Win NT & 2000
Gap handling : Appended to previous track
Used output format : User Defined Encoder
Selected bitrate : 896 kBit/s
Quality : High
Add ID3 tag : No
Command line compressor : C:\Tool\CD\EAC10\FLAC\FLAC.EXE
Additional command line options : -8 -V -T "ARTIST=%artist%" -T "TITLE=%title%" -T "ALBUM=%albumtitle%" -T "DATE=%year%" -T "TRACKNUMBER=%tracknr%" -T "GENRE=%genre%" -T "PERFORMER=%albuminterpret%" -T "COMPOSER=%composer%" %haslyrics%--tag-from-file=LYRICS="%lyricsfile%"%haslyrics% -T "ALBUMARTIST=%albumartist%" -T "ALBUM ARTIST=%albumartist%" -T "DISCNUMBER=%cdnumber%" -T "TOTALDISCS=%totalcds%" -T "TOTALTRACKS=%numtracks%" -T "COMMENT=EAC V1.0 beta 3, Secure Mode, Test & Copy, AccurateRip, FLAC -8" %source% -o %dest%
TOC of the extracted CD
Track | Start | Length | Start sector | End sector
---------------------------------------------------------
1 | 0:00.00 | 5:04.45 | 0 | 22844
2 | 5:04.45 | 4:32.25 | 22845 | 43269
3 | 9:36.70 | 7:38.56 | 43270 | 77675
4 | 17:15.51 | 3:53.27 | 77676 | 95177
5 | 21:09.03 | 8:07.09 | 95178 | 131711
Track 1
Filename C:\! UPLOAD\Steve Lacy - Moon (2002) [FLAC]\01 - Side.wav
Pre-gap length 0:00:02.00
Peak level 81.0 %
Extraction speed 1.7 X
Track quality 100.0 %
Test CRC 29906207
Copy CRC 29906207
Track not present in AccurateRip database
Copy OK
Track 2
Filename C:\! UPLOAD\Steve Lacy - Moon (2002) [FLAC]\02 - Hit.wav
Peak level 75.8 %
Extraction speed 1.9 X
Track quality 100.0 %
Test CRC 47953485
Copy CRC 47953485
Track not present in AccurateRip database
Copy OK
Track 3
Filename C:\! UPLOAD\Steve Lacy - Moon (2002) [FLAC]\03 - Note.wav
Peak level 77.3 %
Extraction speed 2.3 X
Track quality 100.0 %
Test CRC 0DFBD38B
Copy CRC 0DFBD38B
Track not present in AccurateRip database
Copy OK
Track 4
Filename C:\! UPLOAD\Steve Lacy - Moon (2002) [FLAC]\04 - Laugh.wav
Peak level 72.5 %
Extraction speed 1.9 X
Track quality 99.9 %
Test CRC 6CE575DD
Copy CRC 6CE575DD
Track not present in AccurateRip database
Copy OK
Track 5
Filename C:\! UPLOAD\Steve Lacy - Moon (2002) [FLAC]\05 - The Breath.wav
Peak level 92.7 %
Extraction speed 2.7 X
Track quality 100.0 %
Test CRC 5DB4B787
Copy CRC 5DB4B787
Track not present in AccurateRip database
Copy OK
None of the tracks are present in the AccurateRip database
No errors occurred
End of status report
---- CUETools DB Plugin V2.1.3
[CTDB TOCID: qW.rYOdB3Od.W8bkWWgYUTfnJVk-] disk not present in database, Submit result: qW.rYOdB3Od.W8bkWWgYUTfnJVk- has been uploaded
==== Log checksum 4BB668C50C50F6C22A3FD7E98874B4DBA9A90389716FE22863CFA750A18BF6F3 ====
 
Содержание индексной карты (.CUE)
REM GENRE Jazz
REM DATE 2002
REM DISCID 3506DC05
REM COMMENT "ExactAudioCopy v1.0b3"
PERFORMER "Steve Lacy"
TITLE "Moon"
FILE "01 - Side.wav" WAVE
TRACK 01 AUDIO
TITLE "Side"
PERFORMER "Steve Lacy"
INDEX 01 00:00:00
FILE "02 - Hit.wav" WAVE
TRACK 02 AUDIO
TITLE "Hit"
PERFORMER "Steve Lacy"
INDEX 01 00:00:00
FILE "03 - Note.wav" WAVE
TRACK 03 AUDIO
TITLE "Note"
PERFORMER "Steve Lacy"
INDEX 01 00:00:00
FILE "04 - Laugh.wav" WAVE
TRACK 04 AUDIO
TITLE "Laugh"
PERFORMER "Steve Lacy"
INDEX 01 00:00:00
FILE "05 - The Breath.wav" WAVE
TRACK 05 AUDIO
TITLE "The Breath"
PERFORMER "Steve Lacy"
INDEX 01 00:00:00
Доп. информация:
Recorded in Rome, Italy, September 1969.
The protective plastic sleeve is sealed with a sticker: "Limited edition 1500 copies".
 
Об альбоме (by Scott Yanow)
Soprano saxophonist Steve Lacy's first recording as a leader since moving to Europe was originally cut for the Byg label before being reissued on an Affinity LP. Lacy was in Rome after being "stranded" in South America for quite some time. He had embraced many of the aspects of free jazz, and his interplay with the Italian musicians, as well as cellist Irene Aebi, is intriguing, often dense, and quite passionate. Lacy had not yet fully developed his more relaxed, scalar approach to improvising, but his playing is certainly quite distinctive and generally pretty lyrical during performances of his five originals.
 
Состав
Steve Lacy - soprano saxophone
Italo Toni - trombone
Marcello Melis - bass
Irene Aebi - cello
Claudio Volonté - clarinet
Jacques Thollot - drums
По всем вопросам пишите личное сообщение пользователю M0p94ok.
16:11
259
Нет комментариев. Ваш будет первым!