Вы используете незарегистрированную версию компонента "Вкладки"!

Поиск

(Free Improvisation, Altri Suoni) Michel Wintsch / Gerry Hemingway / Baenz Oester (WHO Trio) - Open Songs - 2002, FLAC (tracks+.cue), lossless

(Free Improvisation, Altri Suoni) Michel Wintsch / Gerry Hemingway / Baenz Oester (WHO Trio) - Open Songs - 2002, FLAC (tracks+.cue), lossless
Треклист:
Michel Wintsch / Gerry Hemingway / Bänz Oester (WHO Trio) / Open Songs
Жанр: Free Improvisation, Altri Suoni
Страна-производитель диска: Switzerland
Год издания: 2002
Издатель (лейбл): Altri Suoni
Номер по каталогу: AS 108
Аудиокодек: FLAC (*.flac)
Тип рипа: tracks+.cue
Битрейт аудио: lossless
Продолжительность: 1:04:36
Источник (релизер): Max Monteiro
Наличие сканов в содержимом раздачи: нет
Треклист:
1. Offret (dedicated to Andrei Tarkovski) (Michel Wintsch) 10:17
2. Le Plat Pays (Jacques Brel) 6:07
3. Isablue (Michel Wintsch / Gerry Hemingway / Bänz Oester) 5:43
4. Ne me quitte pas (Jacques Brel) 6:01
5. Path of Rain (Michel Wintsch / Gerry Hemingway / Bänz Oester) 3:13
6. La Foule (Que nadie sepa mi sufrir) 10:11
6-1 • Exposition (Angel Cabral / Enrique Dizeo)
6-2 • Développement (Michel Wintsch / Gerry Hemingway / Bänz Oester)
6-3 • Conclusion (Angel Cabral / Enrique Dizeo)
7. Walking In (Michel Wintsch / Gerry Hemingway / Bänz Oester) 3:43
8. Et maintenant 15:59
8-1 • Exposition (Pierre Delanoë / Gilbert Bécaud)
8-2 • Développement (Michel Wintsch / Gerry Hemingway / Bänz Oester)
8-3 • Conclusion (Pierre Delanoë / Gilbert Bécaud)
9. 2 pm (Michel Wintsch / Gerry Hemingway / Bänz Oester) 3:20
2, 3, 4, 5, 7, 9 recorded at Studio du Flon, Lausanne.
1, 6, 8 recorded live at Jazz Festival Shaffhausen 2001.
Michel Wintsch – Piano
Gerry Hemingway – Drums
Bänz Oester – Bass
 
Лог создания рипа
Exact Audio Copy V1.0 beta 3 from 29. August 2011
EAC extraction logfile from 7. July 2013, 18:34
Michel Wintsch / Gerry Hemingway / Bänz Oester (WHO Trio) / Open Songs
Used drive : SlimtypeeNAU508 5 Adapter: 1 ID: 0
Read mode : Secure
Utilize accurate stream : Yes
Defeat audio cache : Yes
Make use of C2 pointers : No
Read offset correction : 6
Overread into Lead-In and Lead-Out : No
Fill up missing offset samples with silence : Yes
Delete leading and trailing silent blocks : No
Null samples used in CRC calculations : Yes
Used interface : Native Win32 interface for Win NT & 2000
Gap handling : Appended to previous track
Used output format : User Defined Encoder
Selected bitrate : 768 kBit/s
Quality : High
Add ID3 tag : No
Command line compressor : C:\Program Files (x86)\Exact Audio Copy\Flac\flac.exe
Additional command line options : -8 -V -T "ARTIST=%artist%" -T "TITLE=%title%" -T "ALBUM=%albumtitle%" -T "DATE=%year%" -T "TRACKNUMBER=%tracknr%" -T "GENRE=%genre%" -T "PERFORMER=%albuminterpret%" -T "COMPOSER=%composer%" %haslyrics%--tag-from-file=LYRICS="%lyricsfile%"%haslyrics% -T "ALBUMARTIST=%albumartist%" -T "DISCNUMBER=%cdnumber%" -T "TOTALDISCS=%totalcds%" -T "TOTALTRACKS=%numtracks%" -T "COMMENT=%comment%" %source% -o %dest%
TOC of the extracted CD
Track | Start | Length | Start sector | End sector
---------------------------------------------------------
1 | 0:00.00 | 10:16.66 | 0 | 46265
2 | 10:16.66 | 6:07.02 | 46266 | 73792
3 | 16:23.68 | 5:43.30 | 73793 | 99547
4 | 22:07.23 | 6:01.26 | 99548 | 126648
5 | 28:08.49 | 3:12.74 | 126649 | 141122
6 | 31:21.48 | 10:11.24 | 141123 | 186971
7 | 41:32.72 | 3:43.35 | 186972 | 203731
8 | 45:16.32 | 15:59.31 | 203732 | 275687
9 | 61:15.63 | 3:20.29 | 275688 | 290716
Track 1
Filename C:\EAC rips\01 - Offret (dedicated to Andrei Tarkovski).wav
Pre-gap length 0:00:02.00
Peak level 95.7 %
Extraction speed 1.2 X
Track quality 99.9 %
Test CRC 82899D25
Copy CRC 82899D25
Track not present in AccurateRip database
Copy OK
Track 2
Filename C:\EAC rips\02 - Le Plat Pays.wav
Peak level 95.7 %
Extraction speed 1.4 X
Track quality 100.0 %
Test CRC 2DFC2A0F
Copy CRC 2DFC2A0F
Track not present in AccurateRip database
Copy OK
Track 3
Filename C:\EAC rips\03 - Isablue.wav
Pre-gap length 0:00:04.26
Peak level 95.7 %
Extraction speed 1.5 X
Track quality 100.0 %
Test CRC FFD7CDF5
Copy CRC FFD7CDF5
Track not present in AccurateRip database
Copy OK
Track 4
Filename C:\EAC rips\04 - Ne me quitte pas.wav
Pre-gap length 0:00:03.69
Peak level 95.7 %
Extraction speed 1.7 X
Track quality 100.0 %
Test CRC C6C963BB
Copy CRC C6C963BB
Track not present in AccurateRip database
Copy OK
Track 5
Filename C:\EAC rips\05 - Path of Rain.wav
Pre-gap length 0:00:04.03
Peak level 95.7 %
Extraction speed 1.6 X
Track quality 100.0 %
Test CRC 2D241BDC
Copy CRC 2D241BDC
Track not present in AccurateRip database
Copy OK
Track 6
Filename C:\EAC rips\06 - La Foule - Que nadie sepa mi sufrir (exposition - développement - conclusion).wav
Pre-gap length 0:00:05.37
Peak level 95.7 %
Extraction speed 2.0 X
Track quality 100.0 %
Test CRC 32924566
Copy CRC 32924566
Track not present in AccurateRip database
Copy OK
Track 7
Filename C:\EAC rips\07 - Walking In.wav
Pre-gap length 0:00:03.57
Peak level 95.7 %
Extraction speed 1.9 X
Track quality 100.0 %
Test CRC CFBF1465
Copy CRC CFBF1465
Track not present in AccurateRip database
Copy OK
Track 8
Filename C:\EAC rips\08 - Et maintenant (exposition - développement - conclusion).wav
Pre-gap length 0:00:05.06
Peak level 95.7 %
Extraction speed 2.3 X
Track quality 100.0 %
Test CRC 90C806FA
Copy CRC 90C806FA
Track not present in AccurateRip database
Copy OK
Track 9
Filename C:\EAC rips\09 - 2 pm.wav
Pre-gap length 0:00:00.43
Peak level 39.9 %
Extraction speed 2.1 X
Track quality 100.0 %
Test CRC 75DAB8F4
Copy CRC 75DAB8F4
Track not present in AccurateRip database
Copy OK
None of the tracks are present in the AccurateRip database
No errors occurred
End of status report
---- CUETools DB Plugin V2.1.4
[CTDB TOCID: .v6OyvXwUMz.BnNUI.boNELxht0-] disk not present in database
Submit result: .v6OyvXwUMz.BnNUI.boNELxht0- has been uploaded
==== Log checksum 216E41F1F153190A9438B887AA1C19C1781AA33F746A3605195E4D50F2087993 ====
 
Содержание индексной карты (.CUE)
REM GENRE Jazz
REM DATE 2002
REM DISCID 960F2409
REM COMMENT "ExactAudioCopy v1.0b3"
PERFORMER "Michel Wintsch / Gerry Hemingway / Bänz Oester (WHO Trio)"
TITLE "Open Songs"
FILE "01 - Offret (dedicated to Andrei Tarkovski).wav" WAVE
TRACK 01 AUDIO
TITLE "Offret (dedicated to Andrei Tarkovski)"
PERFORMER "Michel Wintsch / Gerry Hemingway / Bänz Oester (WHO Trio)"
ISRC CH1880210801
FLAGS DCP
INDEX 01 00:00:00
FILE "02 - Le Plat Pays.wav" WAVE
TRACK 02 AUDIO
TITLE "Le Plat Pays"
PERFORMER "Michel Wintsch / Gerry Hemingway / Bänz Oester (WHO Trio)"
ISRC CH1880210802
FLAGS DCP
INDEX 01 00:00:00
TRACK 03 AUDIO
TITLE "Isablue"
PERFORMER "Michel Wintsch / Gerry Hemingway / Bänz Oester (WHO Trio)"
ISRC CH1880210803
FLAGS DCP
INDEX 00 06:02:51
FILE "03 - Isablue.wav" WAVE
INDEX 01 00:00:00
TRACK 04 AUDIO
TITLE "Ne me quitte pas"
PERFORMER "Michel Wintsch / Gerry Hemingway / Bänz Oester (WHO Trio)"
ISRC CH1880210804
FLAGS DCP
INDEX 00 05:39:36
FILE "04 - Ne me quitte pas.wav" WAVE
INDEX 01 00:00:00
TRACK 05 AUDIO
TITLE "Path of Rain"
PERFORMER "Michel Wintsch / Gerry Hemingway / Bänz Oester (WHO Trio)"
ISRC CH1880210805
FLAGS DCP
INDEX 00 05:57:23
FILE "05 - Path of Rain.wav" WAVE
INDEX 01 00:00:00
TRACK 06 AUDIO
TITLE "La Foule - Que nadie sepa mi sufrir (exposition / développement / conclusion)"
PERFORMER "Michel Wintsch / Gerry Hemingway / Bänz Oester (WHO Trio)"
ISRC CH1880210806
FLAGS DCP
INDEX 00 03:07:37
FILE "06 - La Foule - Que nadie sepa mi sufrir (exposition - développement - conclusion).wav" WAVE
INDEX 01 00:00:00
INDEX 02 02:48:03
INDEX 03 07:43:07
TRACK 07 AUDIO
TITLE "Walking In"
PERFORMER "Michel Wintsch / Gerry Hemingway / Bänz Oester (WHO Trio)"
ISRC CH1880210807
FLAGS DCP
INDEX 00 10:07:42
FILE "07 - Walking In.wav" WAVE
INDEX 01 00:00:00
TRACK 08 AUDIO
TITLE "Et maintenant (exposition / développement / conclusion)"
PERFORMER "Michel Wintsch / Gerry Hemingway / Bänz Oester (WHO Trio)"
ISRC CH1880210808
FLAGS DCP
INDEX 00 03:38:29
FILE "08 - Et maintenant (exposition - développement - conclusion).wav" WAVE
INDEX 01 00:00:00
TRACK 09 AUDIO
TITLE "2 pm"
PERFORMER "Michel Wintsch / Gerry Hemingway / Bänz Oester (WHO Trio)"
ISRC CH1880210809
FLAGS DCP
INDEX 00 15:58:63
FILE "09 - 2 pm.wav" WAVE
INDEX 01 00:00:00
По всем вопросам пишите личное сообщение пользователю M0p94ok.
16:10
194
Нет комментариев. Ваш будет первым!