Поиск

(Free Jazz, Contemporary Jazz) John Tchicai Trio (Niels-Henning Orsted Pedersen, Pierre Dorge) - Real Tchicai - 1993, FLAC (image+.cue), lossless

(Free Jazz, Contemporary Jazz) John Tchicai Trio (Niels-Henning Orsted Pedersen, Pierre Dorge) - Real Tchicai - 1993, FLAC (image+.cue), lossless
Треклист:
John Tchicai Trio / Real Tchicai
Жанр: Free Jazz, Contemporary Jazz
Страна-производитель диска: Denmark
Год издания: 1993
Издатель (лейбл): SteepleChase
Номер по каталогу: SCCD 31075
Аудиокодек: FLAC (*.flac)
Тип рипа: image+.cue
Битрейт аудио: lossless
Продолжительность: 53:41
Источник (релизер): cd
Наличие сканов в содержимом раздачи: нет
Треклист:
1. Graceful Visitor 5:23
2. Silent Danish Girl 2:46
3. Moksha Point 4:45
4. Monk's Mood 3:41
5. Bambla Jolifanti 5:56
6. One Way Ticket 5:17
7. Mirjam's Dadadance 3:25
8. Blue Barrier 5:39
9. Nothing Doing In Krakow 8:05
10. On Tuesday 3:37
11. Oles Anders 2:13
12. Sailing to the Good Land 1:43
 
Лог создания рипа
Exact Audio Copy V1.0 beta 2 from 29. April 2011
EAC extraction logfile from 16. July 2013, 13:18
John Tchicai Trio / Real Tchicai
Used drive : Optiarc DVD RW AD-7170A Adapter: 0 ID: 0
Read mode : Secure
Utilize accurate stream : Yes
Defeat audio cache : Yes
Make use of C2 pointers : No
Read offset correction : 48
Overread into Lead-In and Lead-Out : No
Fill up missing offset samples with silence : Yes
Delete leading and trailing silent blocks : No
Null samples used in CRC calculations : Yes
Used interface : Native Win32 interface for Win NT & 2000
Used output format : User Defined Encoder
Selected bitrate : 320 kBit/s
Quality : High
Add ID3 tag : No
Command line compressor : C:\Program Files\Exact Audio Copy\Flac\flac.exe
Additional command line options : -V -8 -T "Date=%year%" -T "Genre=%genre%" %source%
TOC of the extracted CD
Track | Start | Length | Start sector | End sector
---------------------------------------------------------
1 | 0:00.32 | 5:28.25 | 32 | 24656
2 | 5:28.57 | 2:47.45 | 24657 | 37226
3 | 8:16.27 | 4:47.10 | 37227 | 58761
4 | 13:03.37 | 3:42.38 | 58762 | 75449
5 | 16:46.00 | 6:07.70 | 75450 | 103044
6 | 22:53.70 | 5:19.35 | 103045 | 127004
7 | 28:13.30 | 3:58.67 | 127005 | 144921
8 | 32:12.22 | 5:41.20 | 144922 | 170516
9 | 37:53.42 | 8:10.10 | 170517 | 207276
10 | 46:03.52 | 3:39.53 | 207277 | 223754
11 | 49:43.30 | 2:16.10 | 223755 | 233964
12 | 51:59.40 | 1:42.20 | 233965 | 241634
Range status and errors
Selected range
Filename K:\ЕАС\John Tchicai Trio - Real Tchicai.wav
Peak level 67.1 %
Extraction speed 2.0 X
Range quality 100.0 %
Test CRC A4467C07
Copy CRC A4467C07
Copy OK
No errors occurred
AccurateRip summary
Track 1 cannot be verified as accurate (confidence 1) [EAB0D4FD], AccurateRip returned [63818929] (AR v2)
Track 2 cannot be verified as accurate (confidence 1) [0C6D6BAA], AccurateRip returned [457674BC] (AR v2)
Track 3 cannot be verified as accurate (confidence 1) [C99A11A6], AccurateRip returned [2EBBA759] (AR v2)
Track 4 cannot be verified as accurate (confidence 1) [B975B753], AccurateRip returned [81B26E3E] (AR v2)
Track 5 cannot be verified as accurate (confidence 1) [374DA351], AccurateRip returned [B9F04716] (AR v2)
Track 6 cannot be verified as accurate (confidence 1) [CC5F7972], AccurateRip returned [3AA87033] (AR v2)
Track 7 cannot be verified as accurate (confidence 1) [5F500E42], AccurateRip returned [EF49FFD2] (AR v2)
Track 8 cannot be verified as accurate (confidence 1) [41AF8A7E], AccurateRip returned [1917B545] (AR v2)
Track 9 cannot be verified as accurate (confidence 1) [299A34A8], AccurateRip returned [7D4AE0A7] (AR v2)
Track 10 cannot be verified as accurate (confidence 1) [5E35C658], AccurateRip returned [663E72B7] (AR v2)
Track 11 cannot be verified as accurate (confidence 1) [6129E5FC], AccurateRip returned [EE7A2834] (AR v2)
Track 12 cannot be verified as accurate (confidence 1) [F775CE72], AccurateRip returned [F6C726ED] (AR v2)
No tracks could be verified as accurate
You may have a different pressing from the one(s) in the database
End of status report
==== Log checksum B766D8CCAAEE858373247D7C8D9DB6D6C69B8CBB040EDFE4C66CDDCB6AAE9A3D ====
 
Содержание индексной карты (.CUE)
REM GENRE Jazz
REM DATE 1993
REM DISCID B30C950C
REM COMMENT "ExactAudioCopy v1.0b2"
PERFORMER "John Tchicai Trio"
TITLE "Real Tchicai"
FILE "John Tchicai Trio - Real Tchicai.flac" WAVE
TRACK 01 AUDIO
TITLE "Graceful Visitor"
PERFORMER "John Tchicai Trio"
INDEX 00 00:00:00
INDEX 01 00:00:32
TRACK 02 AUDIO
TITLE "Silent Danish Girl"
PERFORMER "John Tchicai Trio"
INDEX 00 05:26:30
INDEX 01 05:28:57
TRACK 03 AUDIO
TITLE "Moksha Point"
PERFORMER "John Tchicai Trio"
INDEX 00 08:15:27
INDEX 01 08:16:27
TRACK 04 AUDIO
TITLE "Monk's Mood"
PERFORMER "John Tchicai Trio"
INDEX 00 13:00:55
INDEX 01 13:03:37
TRACK 05 AUDIO
TITLE "Bambla Jolifanti"
PERFORMER "John Tchicai Trio"
INDEX 00 16:44:67
INDEX 01 16:46:00
TRACK 06 AUDIO
TITLE "One Way Ticket"
PERFORMER "John Tchicai Trio"
INDEX 00 22:50:30
INDEX 01 22:53:70
TRACK 07 AUDIO
TITLE "Mirjam's Dadadance"
PERFORMER "John Tchicai Trio"
INDEX 00 28:11:32
INDEX 01 28:13:30
TRACK 08 AUDIO
TITLE "Blue Barrier"
PERFORMER "John Tchicai Trio"
INDEX 00 32:09:37
INDEX 01 32:12:22
TRACK 09 AUDIO
TITLE "Nothing Doing in Krakow"
PERFORMER "John Tchicai Trio"
INDEX 00 37:51:27
INDEX 01 37:53:42
TRACK 10 AUDIO
TITLE "On Tuesday"
PERFORMER "John Tchicai Trio"
INDEX 00 46:00:15
INDEX 01 46:03:52
TRACK 11 AUDIO
TITLE "Oles Anders"
PERFORMER "John Tchicai Trio"
INDEX 00 49:39:67
INDEX 01 49:43:30
TRACK 12 AUDIO
TITLE "Sailing to the Good Land"
PERFORMER "John Tchicai Trio"
INDEX 00 51:56:02
INDEX 01 51:59:40
Доп. информация: Recorded March 23, 1977
 
Состав
Alto Saxophone – John Tchicai
Bass – Niels-Henning Ørsted Pedersen
Guitar – Pierre Dørge
По всем вопросам пишите личное сообщение пользователю M0p94ok.
16:10
242
Нет комментариев. Ваш будет первым!