Вы используете незарегистрированную версию компонента "Вкладки"!

Поиск

(Free Jazz, Free Improvisation, NoBusiness Records) The Convergence Quartet (Taylor Ho Bynum, Alexander Hawkins, Dominic Lash, Harris Eisenstadt) - Slow And Steady - 2013, FLAC (image+.cue), lossless

(Free Jazz, Free Improvisation, NoBusiness Records) The Convergence Quartet (Taylor Ho Bynum, Alexander Hawkins, Dominic Lash, Harris Eisenstadt) - Slow And Steady - 2013, FLAC (image+.cue), lossless
Треклист:
The Convergence Quartet / Slow And Steady
Жанр: Free Jazz, Free Improvisation
Страна-производитель диска: Lithuania
Год издания: 2013
Издатель (лейбл): NoBusiness Records
Номер по каталогу: NBCD53
Аудиокодек: FLAC (*.flac)
Тип рипа: image+.cue
Битрейт аудио: lossless
Продолжительность: 51:29
Источник (релизер): cd
Наличие сканов в содержимом раздачи: нет
Треклист:
1 Assemble / Melancholy
2 Third Convergence
3 Remember Raoul / Piano Part Two
4 Equals / Understand (Totem)
5 Oat Roe + Three By Three
6 The Taff End
7 Slow And Steady
 
Лог создания рипа
Exact Audio Copy V1.0 beta 2 from 29. April 2011
EAC extraction logfile from 29. June 2013, 12:13
The Convergence Quartet / Slow And Steady
Used drive : Optiarc DVD RW AD-7170A Adapter: 0 ID: 0
Read mode : Secure
Utilize accurate stream : Yes
Defeat audio cache : Yes
Make use of C2 pointers : No
Read offset correction : 48
Overread into Lead-In and Lead-Out : No
Fill up missing offset samples with silence : Yes
Delete leading and trailing silent blocks : No
Null samples used in CRC calculations : Yes
Used interface : Native Win32 interface for Win NT & 2000
Used output format : User Defined Encoder
Selected bitrate : 320 kBit/s
Quality : High
Add ID3 tag : No
Command line compressor : C:\Program Files\Exact Audio Copy\Flac\flac.exe
Additional command line options : -V -8 -T "Date=%year%" -T "Genre=%genre%" %source%
TOC of the extracted CD
Track | Start | Length | Start sector | End sector
---------------------------------------------------------
1 | 0:00.00 | 4:14.63 | 0 | 19112
2 | 4:14.63 | 13:52.10 | 19113 | 81522
3 | 18:06.73 | 8:55.57 | 81523 | 121704
4 | 27:02.55 | 5:49.53 | 121705 | 147932
5 | 32:52.33 | 7:21.44 | 147933 | 181051
6 | 40:14.02 | 7:18.31 | 181052 | 213932
7 | 47:32.33 | 3:57.21 | 213933 | 231728
Range status and errors
Selected range
Filename K:\ЕАС\The Convergence Quartet - Slow And Steady.wav
Peak level 96.6 %
Extraction speed 1.9 X
Range quality 100.0 %
Test CRC 75E3F1DD
Copy CRC 75E3F1DD
Copy OK
No errors occurred
AccurateRip summary
Track 1 not present in database
Track 2 not present in database
Track 3 not present in database
Track 4 not present in database
Track 5 not present in database
Track 6 not present in database
Track 7 not present in database
None of the tracks are present in the AccurateRip database
End of status report
==== Log checksum 04D4113211D180CE7CC2325FB18F79608FF864E21B3A80CD959C73482B19A2E0 ====
 
Содержание индексной карты (.CUE)
REM GENRE Jazz
REM DATE 2013
REM DISCID 620C1107
REM COMMENT "ExactAudioCopy v1.0b2"
PERFORMER "The Convergence Quartet"
TITLE "Slow And Steady"
FILE "The Convergence Quartet - Slow And Steady.flac" WAVE
TRACK 01 AUDIO
TITLE "Assemble / Melancholy"
PERFORMER "The Convergence Quartet"
ISRC 000000000000
INDEX 01 00:00:00
TRACK 02 AUDIO
TITLE "Third Convergence"
PERFORMER "The Convergence Quartet"
ISRC 000000000000
INDEX 00 04:11:63
INDEX 01 04:14:63
TRACK 03 AUDIO
TITLE "Remember Raoul / Piano Part Two"
PERFORMER "The Convergence Quartet"
ISRC 000000000000
INDEX 00 18:03:73
INDEX 01 18:06:73
TRACK 04 AUDIO
TITLE "Equals / Understand (Totem)"
PERFORMER "The Convergence Quartet"
ISRC 000000000000
INDEX 00 26:59:55
INDEX 01 27:02:55
TRACK 05 AUDIO
TITLE "Oat Roe + Three by Three"
PERFORMER "The Convergence Quartet"
ISRC 000000000000
INDEX 00 32:49:33
INDEX 01 32:52:33
TRACK 06 AUDIO
TITLE "The Taff End"
PERFORMER "The Convergence Quartet"
ISRC 000000000000
INDEX 00 40:11:02
INDEX 01 40:14:02
TRACK 07 AUDIO
TITLE "Slow and Steady"
PERFORMER "The Convergence Quartet"
ISRC 000000000000
INDEX 00 47:29:33
INDEX 01 47:32:33
Доп. информация: Recorded live at the Vortex Jazz Club, Sunday November 13th 2011 as part of the London Jazz Festival
 
Состав
Bass – Dominic Lash
Drums – Harris Eisenstadt
Piano – Alexander Hawkins
Trumpet – Taylor Ho Bynum
По всем вопросам пишите личное сообщение пользователю M0p94ok.
16:09
190
Нет комментариев. Ваш будет первым!