Вы используете незарегистрированную версию компонента "Вкладки"!

Поиск

(Avant-Garde, Free Improvisation, Altri Suoni) Border Meetings (Anna Grichting, Jean-Jacques Pedretti, Martin Schutz, Lucas Niggli) - Border Meetings - 2000, FLAC (tracks+.cue), lossless

(Avant-Garde, Free Improvisation, Altri Suoni) Border Meetings (Anna Grichting, Jean-Jacques Pedretti, Martin Schutz, Lucas Niggli) - Border Meetings - 2000, FLAC (tracks+.cue), lossless
Треклист:
Border Meetings / Border Meetings
Жанр: Avant-Garde, Free Improvisation, Altri Suoni
Страна-производитель диска: Switzerland
Год издания: 2000
Издатель (лейбл): Altri Suoni
Номер по каталогу: AS 060
Аудиокодек: FLAC (*.flac)
Тип рипа: tracks+.cue
Битрейт аудио: lossless
Продолжительность: 1:04:29
Источник (релизер): Max Monteiro
Наличие сканов в содержимом раздачи: нет
Треклист:
01. Territories of Sound (Border Meetings, arr. A. Grichting & J.-J. Pedretti) 2:52
02. Daydreams and Nightmares (comp. & arr. J.-J. Pedretti) 2:37
03. Belfast – Bombay (Ireland – India) (Border Meetings, arr. A. Grichting & J.-J. Pedretti) 13:34
04. Frontières (Border Meetings, lyrics A. Grichting, arr. Martin Schütz) 0:52
05. Williams House (comp. & arr. J.-J. Pedretti) 2:02
06. Berlin (Border Meetings, arr. A. Grichting) 5:31
07. Villes frontières (Border Meetings, lyrics A. Grichting, arr. Martin Schütz) 1:08
08. Song for F. (comp. & arr. J.-J. Pedretti) 1:10
09. The Wall (comp. J.-J. Pedretti, arr. Border Meetings, lyrics Yvonne Houlton) 3:52
10. La Ville 1:02
11. Psycho (comp. & arr. J.-J. Pedretti) 2:42
12. The Other Side (comp. J.-J. Pedretti & A. Grichting, lyrics A. Grichting, arr. Border Meetings) 4:38
13. Accidental Meetings (comp. & arr. J.-J. Pedretti, lyrics A. Grichting) 4:31
14. Membranes and Interfaces (Territories of Rythm) (comp. L. Niggli, arr. L. Niggli & A. Grichting) 3:46
15. 1789-1989 (comp. J.-J. Pedretti & A. Grichting, lyrics A. Grichting, arr. Border Meetings) 7:00
16. Röstigraben / Gemmipass (comp. A. Grichting & J.-J. Pedretti, lyrics A. Grichting, arr. Border Meetings) 7:13
Border Meetings was created on the 9th November 1996 and was recorded live à the Usine à gaz, Nyon, on the 3rd October 1997.
Anna Grichting – Vocals, Lyrics, Tuning Box
Jean-Jacques Pedretti – Trombone, Shell, Alphorn
Martin Schütz – Electric Cello, Sampler
Lucas Niggli – Drums, Percussion
Voice by François Berthet. Voices on « Röstigraben » by Hélène Grichting & Wilhelm Grichting. Samples taken from videos of Berlin Wall filmed by Anna Grichting in November 1989. « Live » sampling by Martin Schütz.
 
Лог создания рипа
Exact Audio Copy V1.0 beta 3 from 29. August 2011
EAC extraction logfile from 13. July 2013, 10:34
Border Meetings / Border Meetings
Used drive : SlimtypeeNAU508 5 Adapter: 1 ID: 0
Read mode : Secure
Utilize accurate stream : Yes
Defeat audio cache : Yes
Make use of C2 pointers : No
Read offset correction : 6
Overread into Lead-In and Lead-Out : No
Fill up missing offset samples with silence : Yes
Delete leading and trailing silent blocks : No
Null samples used in CRC calculations : Yes
Used interface : Native Win32 interface for Win NT & 2000
Gap handling : Appended to previous track
Used output format : User Defined Encoder
Selected bitrate : 768 kBit/s
Quality : High
Add ID3 tag : No
Command line compressor : C:\Program Files (x86)\Exact Audio Copy\Flac\flac.exe
Additional command line options : -8 -V -T "ARTIST=%artist%" -T "TITLE=%title%" -T "ALBUM=%albumtitle%" -T "DATE=%year%" -T "TRACKNUMBER=%tracknr%" -T "GENRE=%genre%" -T "PERFORMER=%albuminterpret%" -T "COMPOSER=%composer%" %haslyrics%--tag-from-file=LYRICS="%lyricsfile%"%haslyrics% -T "ALBUMARTIST=%albumartist%" -T "DISCNUMBER=%cdnumber%" -T "TOTALDISCS=%totalcds%" -T "TOTALTRACKS=%numtracks%" -T "COMMENT=%comment%" %source% -o %dest%
TOC of the extracted CD
Track | Start | Length | Start sector | End sector
---------------------------------------------------------
1 | 0:00.00 | 2:52.36 | 0 | 12935
2 | 2:52.36 | 2:37.15 | 12936 | 24725
3 | 5:29.51 | 13:34.14 | 24726 | 85789
4 | 19:03.65 | 0:51.55 | 85790 | 89669
5 | 19:55.45 | 2:01.55 | 89670 | 98799
6 | 21:57.25 | 5:31.12 | 98800 | 123636
7 | 27:28.37 | 1:07.40 | 123637 | 128701
8 | 28:36.02 | 1:09.40 | 128702 | 133916
9 | 29:45.42 | 3:51.59 | 133917 | 151300
10 | 33:37.26 | 1:01.42 | 151301 | 155917
11 | 34:38.68 | 2:41.59 | 155918 | 168051
12 | 37:20.52 | 4:38.17 | 168052 | 188918
13 | 41:58.69 | 4:30.55 | 188919 | 209223
14 | 46:29.49 | 3:46.37 | 209224 | 226210
15 | 50:16.11 | 6:59.52 | 226211 | 257687
16 | 57:15.63 | 7:13.28 | 257688 | 290190
Track 1
Filename C:\EAC rips\01 - Territories of Sound.wav
Pre-gap length 0:00:02.00
Peak level 75.1 %
Extraction speed 2.0 X
Track quality 100.0 %
Test CRC E8E3DEE3
Copy CRC E8E3DEE3
Track not present in AccurateRip database
Copy OK
Track 2
Filename C:\EAC rips\02 - Daydreams & Nightmares.wav
Pre-gap length 0:00:02.00
Peak level 99.4 %
Extraction speed 2.1 X
Track quality 100.0 %
Test CRC 0CB93260
Copy CRC 0CB93260
Track not present in AccurateRip database
Copy OK
Track 3
Filename C:\EAC rips\03 - Belfast - Bombay (Ireland - India).wav
Peak level 94.7 %
Extraction speed 2.9 X
Track quality 100.0 %
Test CRC E489FC7E
Copy CRC E489FC7E
Track not present in AccurateRip database
Copy OK
Track 4
Filename C:\EAC rips\04 - Frontières.wav
Peak level 56.0 %
Extraction speed 1.4 X
Track quality 100.0 %
Test CRC 196EB27B
Copy CRC 196EB27B
Track not present in AccurateRip database
Copy OK
Track 5
Filename C:\EAC rips\05 - Williams House.wav
Peak level 91.8 %
Extraction speed 2.6 X
Track quality 100.0 %
Test CRC DEEA7742
Copy CRC DEEA7742
Track not present in AccurateRip database
Copy OK
Track 6
Filename C:\EAC rips\06 - Berlin.wav
Peak level 96.8 %
Extraction speed 3.2 X
Track quality 100.0 %
Test CRC 89E922C0
Copy CRC 89E922C0
Track not present in AccurateRip database
Copy OK
Track 7
Filename C:\EAC rips\07 - Villes frontières.wav
Peak level 66.3 %
Extraction speed 2.4 X
Track quality 100.0 %
Test CRC 88E9727D
Copy CRC 88E9727D
Track not present in AccurateRip database
Copy OK
Track 8
Filename C:\EAC rips\08 - Song for F..wav
Peak level 83.9 %
Extraction speed 2.4 X
Track quality 100.0 %
Test CRC 5E91E878
Copy CRC 5E91E878
Track not present in AccurateRip database
Copy OK
Track 9
Filename C:\EAC rips\09 - The Wall.wav
Pre-gap length 0:00:02.00
Peak level 98.3 %
Extraction speed 3.5 X
Track quality 100.0 %
Test CRC 12549A11
Copy CRC 12549A11
Track not present in AccurateRip database
Copy OK
Track 10
Filename C:\EAC rips\10 - La Ville.wav
Pre-gap length 0:00:02.08
Peak level 73.6 %
Extraction speed 2.5 X
Track quality 100.0 %
Test CRC 080A7661
Copy CRC 080A7661
Track not present in AccurateRip database
Copy OK
Track 11
Filename C:\EAC rips\11 - Psycho.wav
Pre-gap length 0:00:01.69
Peak level 88.9 %
Extraction speed 3.4 X
Track quality 100.0 %
Test CRC 4F8FD163
Copy CRC 4F8FD163
Track not present in AccurateRip database
Copy OK
Track 12
Filename C:\EAC rips\12 - The Other Side.wav
Pre-gap length 0:00:02.03
Peak level 99.0 %
Extraction speed 3.2 X
Track quality 99.9 %
Test CRC 58B86717
Copy CRC 58B86717
Track not present in AccurateRip database
Copy OK
Track 13
Filename C:\EAC rips\13 - Accidental Meetings.wav
Peak level 60.4 %
Extraction speed 3.8 X
Track quality 100.0 %
Test CRC 27FDA404
Copy CRC 27FDA404
Track not present in AccurateRip database
Copy OK
Track 14
Filename C:\EAC rips\14 - Membranes and Interfaces (Territories of Rythmn).wav
Peak level 95.5 %
Extraction speed 3.9 X
Track quality 100.0 %
Test CRC 65F1E342
Copy CRC 65F1E342
Track not present in AccurateRip database
Copy OK
Track 15
Filename C:\EAC rips\15 - 1789-1989.wav
Peak level 99.4 %
Extraction speed 1.9 X
Track quality 99.8 %
Test CRC 1982C8FF
Copy CRC 1982C8FF
Track not present in AccurateRip database
Copy OK
Track 16
Filename C:\EAC rips\16 - Röstigraben - Gemmipass.wav
Peak level 99.0 %
Extraction speed 3.7 X
Track quality 99.9 %
Test CRC 7CD1D3B8
Copy CRC 7CD1D3B8
Track not present in AccurateRip database
Copy OK
None of the tracks are present in the AccurateRip database
No errors occurred
End of status report
---- CUETools DB Plugin V2.1.4
[CTDB TOCID: R0sxAEdZLkA0DkNjCyQKI.sXeTs-] found
Submit result: already submitted
Track | CTDB Status
1 | (1/1) Accurately ripped
2 | (1/1) Accurately ripped
3 | (1/1) Accurately ripped
4 | (1/1) Accurately ripped
5 | (1/1) Accurately ripped
6 | (1/1) Accurately ripped
7 | (1/1) Accurately ripped
8 | (1/1) Accurately ripped
9 | (1/1) Accurately ripped
10 | (1/1) Accurately ripped
11 | (1/1) Accurately ripped
12 | (1/1) Accurately ripped
13 | (1/1) Accurately ripped
14 | (1/1) Accurately ripped
15 | (1/1) Accurately ripped
16 | (1/1) Accurately ripped
==== Log checksum 53B438748FA29FA3D449CF32AB42245340397BEE74587EA0F6101E5B1217798F ====
 
Содержание индексной карты (.CUE)
REM GENRE Jazz
REM DATE 2000
REM DISCID CD0F1D10
REM COMMENT "ExactAudioCopy v1.0b3"
PERFORMER "Border Meetings"
TITLE "Border Meetings"
FILE "01 - Territories of Sound.wav" WAVE
TRACK 01 AUDIO
TITLE "Territories of Sound"
PERFORMER "Border Meetings"
ISRC CH1880006001
INDEX 01 00:00:00
TRACK 02 AUDIO
TITLE "Daydreams & Nightmares"
PERFORMER "Border Meetings"
ISRC CH1880006002
INDEX 00 02:50:36
FILE "02 - Daydreams & Nightmares.wav" WAVE
INDEX 01 00:00:00
FILE "03 - Belfast - Bombay (Ireland - India).wav" WAVE
TRACK 03 AUDIO
TITLE "Belfast - Bombay (Ireland - India)"
PERFORMER "Border Meetings"
ISRC CH1880006003
INDEX 01 00:00:00
FILE "04 - Frontières.wav" WAVE
TRACK 04 AUDIO
TITLE "Frontières"
PERFORMER "Border Meetings"
ISRC CH1880006004
INDEX 01 00:00:00
FILE "05 - Williams House.wav" WAVE
TRACK 05 AUDIO
TITLE "Williams House"
PERFORMER "Border Meetings"
ISRC CH1880006005
INDEX 01 00:00:00
FILE "06 - Berlin.wav" WAVE
TRACK 06 AUDIO
TITLE "Berlin"
PERFORMER "Border Meetings"
ISRC CH1880006006
INDEX 01 00:00:00
FILE "07 - Villes frontières.wav" WAVE
TRACK 07 AUDIO
TITLE "Villes frontières"
PERFORMER "Border Meetings"
ISRC CH1880006007
INDEX 01 00:00:00
FILE "08 - Song for F..wav" WAVE
TRACK 08 AUDIO
TITLE "Song for F."
PERFORMER "Border Meetings"
ISRC CH1880006008
INDEX 01 00:00:00
TRACK 09 AUDIO
TITLE "The Wall"
PERFORMER "Border Meetings"
ISRC CH1880006009
INDEX 00 01:07:40
FILE "09 - The Wall.wav" WAVE
INDEX 01 00:00:00
TRACK 10 AUDIO
TITLE "La Ville"
PERFORMER "Border Meetings"
ISRC CH1880006010
INDEX 00 03:49:51
FILE "10 - La Ville.wav" WAVE
INDEX 01 00:00:00
TRACK 11 AUDIO
TITLE "Psycho"
PERFORMER "Border Meetings"
ISRC CH1880006011
INDEX 00 00:59:48
FILE "11 - Psycho.wav" WAVE
INDEX 01 00:00:00
TRACK 12 AUDIO
TITLE "The Other Side"
PERFORMER "Border Meetings"
ISRC CH1880006012
INDEX 00 02:39:56
FILE "12 - The Other Side.wav" WAVE
INDEX 01 00:00:00
FILE "13 - Accidental Meetings.wav" WAVE
TRACK 13 AUDIO
TITLE "Accidental Meetings"
PERFORMER "Border Meetings"
ISRC CH1880006013
INDEX 01 00:00:00
FILE "14 - Membranes and Interfaces (Territories of Rythm).wav" WAVE
TRACK 14 AUDIO
TITLE "Membranes and Interfaces (Territories of Rythm)"
PERFORMER "Border Meetings"
ISRC CH1880006014
INDEX 01 00:00:00
FILE "15 - 1789-1989.wav" WAVE
TRACK 15 AUDIO
TITLE "1789-1989"
PERFORMER "Border Meetings"
ISRC CH1880006015
INDEX 01 00:00:00
FILE "16 - Röstigraben - Gemmipass.wav" WAVE
TRACK 16 AUDIO
TITLE "Röstigraben / Gemmipass"
PERFORMER "Border Meetings"
ISRC CH1880006016
INDEX 01 00:00:00
По всем вопросам пишите личное сообщение пользователю M0p94ok.
16:08
220
Нет комментариев. Ваш будет первым!