Вы используете незарегистрированную версию компонента "Вкладки"!

Поиск

(Free Improvisation) Play Station 6 (Maartje ten Hoorn, Tobias Delius, Eric Boeren, Achim Kaufmann, Meinrad Kneer, Paul Lovens) - #1 - 2006, FLAC (image+.cue), lossless

(Free Improvisation) Play Station 6 (Maartje ten Hoorn, Tobias Delius, Eric Boeren, Achim Kaufmann, Meinrad Kneer, Paul Lovens) - #1 - 2006, FLAC (image+.cue), lossless
Треклист:
Play Station 6 / #1
Жанр: Free Improvisation
Страна-производитель диска: Netherlands
Год издания: 2006
Издатель (лейбл): Evil Rabbit Records
Номер по каталогу: ERR 03
Аудиокодек: FLAC (*.flac)
Тип рипа: image+.cue
Битрейт аудио: lossless
Продолжительность: 54:35
Источник (релизер): cd
Наличие сканов в содержимом раздачи: нет
Треклист:
1 Somorrostro 1:30
2 Glorie Van Holland 5:53
3 Misty 2:40
4 Unprepared 6:30
5 Alone 5:12
6 Outside Inside 2:20
7 Man With Scythe 2:14
8 Untitled 4:59
9 Majo's Retreat 7:17
10 Bravas 8:20
11 The Black Box 2:34
12 Alive And Cooking 2:16
13 Forgiven 2:00
 
Лог создания рипа
Exact Audio Copy V1.0 beta 2 from 29. April 2011
EAC extraction logfile from 15. July 2013, 15:03
Play Station 6 / #1
Used drive : Optiarc DVD RW AD-7170A Adapter: 0 ID: 0
Read mode : Secure
Utilize accurate stream : Yes
Defeat audio cache : Yes
Make use of C2 pointers : No
Read offset correction : 48
Overread into Lead-In and Lead-Out : No
Fill up missing offset samples with silence : Yes
Delete leading and trailing silent blocks : No
Null samples used in CRC calculations : Yes
Used interface : Native Win32 interface for Win NT & 2000
Used output format : User Defined Encoder
Selected bitrate : 320 kBit/s
Quality : High
Add ID3 tag : No
Command line compressor : C:\Program Files\Exact Audio Copy\Flac\flac.exe
Additional command line options : -V -8 -T "Date=%year%" -T "Genre=%genre%" %source%
TOC of the extracted CD
Track | Start | Length | Start sector | End sector
---------------------------------------------------------
1 | 0:00.00 | 1:31.34 | 0 | 6858
2 | 1:31.34 | 5:56.74 | 6859 | 33632
3 | 7:28.33 | 2:44.40 | 33633 | 45972
4 | 10:12.73 | 6:34.44 | 45973 | 75566
5 | 16:47.42 | 5:16.70 | 75567 | 99336
6 | 22:04.37 | 2:24.57 | 99337 | 110193
7 | 24:29.19 | 2:18.18 | 110194 | 120561
8 | 26:47.37 | 5:03.32 | 120562 | 143318
9 | 31:50.69 | 7:20.47 | 143319 | 176365
10 | 39:11.41 | 8:24.64 | 176366 | 214229
11 | 47:36.30 | 2:38.43 | 214230 | 226122
12 | 50:14.73 | 2:19.04 | 226123 | 236551
13 | 52:34.02 | 2:01.07 | 236552 | 245633
Range status and errors
Selected range
Filename K:\ЕАС\Play Station 6 - #1.wav
Peak level 97.7 %
Extraction speed 2.0 X
Range quality 100.0 %
Test CRC E0952FEB
Copy CRC E0952FEB
Copy OK
No errors occurred
AccurateRip summary
Track 1 not present in database
Track 2 not present in database
Track 3 not present in database
Track 4 not present in database
Track 5 not present in database
Track 6 not present in database
Track 7 not present in database
Track 8 not present in database
Track 9 not present in database
Track 10 not present in database
Track 11 not present in database
Track 12 not present in database
Track 13 not present in database
None of the tracks are present in the AccurateRip database
End of status report
==== Log checksum E1E6AC73B32D19C39006F35F37818BD0A22615D1D19ECB5A8DCFFE7F5EF088AB ====
 
Содержание индексной карты (.CUE)
REM GENRE Jazz
REM DATE 2006
REM DISCID 9F0CCB0D
REM COMMENT "ExactAudioCopy v1.0b2"
PERFORMER "Play Station 6"
TITLE "#1"
FILE "Play Station 6 - #1.flac" WAVE
TRACK 01 AUDIO
TITLE "Somorrostro"
PERFORMER "Play Station 6"
ISRC NLZ606400001
INDEX 01 00:00:00
TRACK 02 AUDIO
TITLE "Glorie Van Holland"
PERFORMER "Play Station 6"
ISRC NLZ606400002
INDEX 00 01:28:65
INDEX 01 01:31:34
TRACK 03 AUDIO
TITLE "Misty"
PERFORMER "Play Station 6"
ISRC NLZ606400003
INDEX 00 07:24:64
INDEX 01 07:28:33
TRACK 04 AUDIO
TITLE "Unprepared "
PERFORMER "Play Station 6"
ISRC NLZ606400004
INDEX 00 10:09:29
INDEX 01 10:12:73
TRACK 05 AUDIO
TITLE "Alone"
PERFORMER "Play Station 6"
ISRC NLZ606400005
INDEX 00 16:43:73
INDEX 01 16:47:42
TRACK 06 AUDIO
TITLE "Outside Inside"
PERFORMER "Play Station 6"
ISRC NLZ606400006
INDEX 00 22:00:68
INDEX 01 22:04:37
TRACK 07 AUDIO
TITLE "Man With Scythe"
PERFORMER "Play Station 6"
ISRC NLZ606400007
INDEX 00 24:25:50
INDEX 01 24:29:19
TRACK 08 AUDIO
TITLE "Untitled"
PERFORMER "Play Station 6"
ISRC NLZ606400008
INDEX 00 26:43:68
INDEX 01 26:47:37
TRACK 09 AUDIO
TITLE "Majo's Retreat"
PERFORMER "Play Station 6"
ISRC NLZ606400009
INDEX 00 31:47:25
INDEX 01 31:50:69
TRACK 10 AUDIO
TITLE "Bravas"
PERFORMER "Play Station 6"
ISRC NLZ606400010
INDEX 00 39:08:71
INDEX 01 39:11:41
TRACK 11 AUDIO
TITLE "The Black Box"
PERFORMER "Play Station 6"
ISRC NLZ606400011
INDEX 00 47:32:61
INDEX 01 47:36:30
TRACK 12 AUDIO
TITLE "Alive And Cooking"
PERFORMER "Play Station 6"
ISRC NLZ606400012
INDEX 00 50:11:29
INDEX 01 50:14:73
TRACK 13 AUDIO
TITLE "Forgiven"
PERFORMER "Play Station 6"
ISRC NLZ606400013
INDEX 00 52:31:32
INDEX 01 52:34:02
Доп. информация: Recorded on 27 January 2006 at Loft, Cologne
 
Состав
Bass – Meinrad Kneer
Clarinet, Tenor Saxophone – Tobias Delius
Cornet – Eric Boeren
Drums – Paul Lovens
Piano – Achim Kaufmann
Violin, Producer – Maartje ten Hoorn
По всем вопросам пишите личное сообщение пользователю M0p94ok.
16:08
158
Нет комментариев. Ваш будет первым!