Поиск

(Free Jazz, Avant-Garde) Julien Pinol - Beethoven: Recorded Live - 2001, FLAC (tracks+.cue), lossless

(Free Jazz, Avant-Garde) Julien Pinol - Beethoven: Recorded Live - 2001, FLAC (tracks+.cue), lossless
Треклист:
Julien Pinol / Beethoven: Recorded Live
Жанр: Free Jazz, Avant-Garde
Страна-производитель диска: Switzerland
Год издания: 2001
Издатель (лейбл): Doron Jazz
Номер по каталогу: DRJ 1010
Аудиокодек: FLAC (*.flac)
Тип рипа: tracks+.cue
Битрейт аудио: lossless
Продолжительность: 51:53
Источник (релизер): Max Monteiro
Наличие сканов в содержимом раздачи: нет
Треклист:
01. Op. 67 (8:36)
02. Op. 62 (5:42)
03. Op. 13 (4:30)
04. Op. 111 (7:10)
05. Op. 95 (5:50)
06. Op. 132 (4:35)
07. Op. 2 No. 13 (7:24)
08. Op. 130 (3:59)
09. Op. 106 (3:33)
10. Op. 125 (0:34)
All arrangements: Julien Pinol.
Recorded live on January 25, 2001 at Studio Angström, Geneva.
The index points is provided for convenience of reference and does not indicate a division in the work.
Julien Pinol – Double Bass
Pete Ehrnrooth – Bass Clarinet
Gilles Torrent – Tenor Sax
Igor Francesco – Flute
Marco Sierro – Alto Sax
Sandro Zonca – Drums
1-4: Set 1 with reminiscences of Symphonie No. 5 op. 67, Coriolan op. 62, Klavier Sonate op. 13 & op. 111.
5-10: Set 2 with reminiscences of Streichquartett op. 95 & op. 132, Klavier Sonate op. 2 No. 3, Streichquartett op. 130, Klavier Sonate op. 106, Symphonie No. 9 op. 125.
Concert in its entirety, taped as played – one take.
 
Лог создания рипа
Exact Audio Copy V1.0 beta 3 from 29. August 2011
EAC extraction logfile from 17. June 2013, 13:17
Julien Pinol / Beethoven: Recorded Live
Used drive : SlimtypeeNAU508 5 Adapter: 1 ID: 0
Read mode : Secure
Utilize accurate stream : Yes
Defeat audio cache : Yes
Make use of C2 pointers : No
Read offset correction : 6
Overread into Lead-In and Lead-Out : No
Fill up missing offset samples with silence : Yes
Delete leading and trailing silent blocks : No
Null samples used in CRC calculations : Yes
Used interface : Native Win32 interface for Win NT & 2000
Gap handling : Appended to previous track
Used output format : User Defined Encoder
Selected bitrate : 768 kBit/s
Quality : High
Add ID3 tag : No
Command line compressor : C:\Program Files (x86)\Exact Audio Copy\Flac\flac.exe
Additional command line options : -8 -V -T "ARTIST=%artist%" -T "TITLE=%title%" -T "ALBUM=%albumtitle%" -T "DATE=%year%" -T "TRACKNUMBER=%tracknr%" -T "GENRE=%genre%" -T "PERFORMER=%albuminterpret%" -T "COMPOSER=%composer%" %haslyrics%--tag-from-file=LYRICS="%lyricsfile%"%haslyrics% -T "ALBUMARTIST=%albumartist%" -T "DISCNUMBER=%cdnumber%" -T "TOTALDISCS=%totalcds%" -T "TOTALTRACKS=%numtracks%" -T "COMMENT=%comment%" %source% -o %dest%
TOC of the extracted CD
Track | Start | Length | Start sector | End sector
---------------------------------------------------------
1 | 0:00.01 | 8:36.05 | 1 | 38705
2 | 8:36.06 | 5:41.72 | 38706 | 64352
3 | 14:18.03 | 4:29.68 | 64353 | 84595
4 | 18:47.71 | 7:09.56 | 84596 | 116826
5 | 25:57.52 | 5:49.69 | 116827 | 143070
6 | 31:47.46 | 4:35.18 | 143071 | 163713
7 | 36:22.64 | 7:23.68 | 163714 | 197006
8 | 43:46.57 | 3:58.73 | 197007 | 214929
9 | 47:45.55 | 3:33.23 | 214930 | 230927
10 | 51:19.03 | 0:33.58 | 230928 | 233460
Track 1
Filename C:\EAC rips\01 - Op. 67.wav
Pre-gap length 0:00:02.01
Peak level 91.9 %
Extraction speed 1.2 X
Track quality 100.0 %
Test CRC 83373EDC
Copy CRC 83373EDC
Track not present in AccurateRip database
Copy OK
Track 2
Filename C:\EAC rips\02 - Op. 62.wav
Peak level 93.1 %
Extraction speed 1.2 X
Track quality 99.9 %
Test CRC 2C1792D4
Copy CRC 2C1792D4
Track not present in AccurateRip database
Copy OK
Track 3
Filename C:\EAC rips\03 - Op. 13.wav
Peak level 100.0 %
Extraction speed 1.3 X
Track quality 99.9 %
Test CRC BF733E34
Copy CRC BF733E34
Track not present in AccurateRip database
Copy OK
Track 4
Filename C:\EAC rips\04 - Op. 111.wav
Peak level 100.0 %
Extraction speed 1.7 X
Track quality 100.0 %
Test CRC 8ECAEAA5
Copy CRC 8ECAEAA5
Track not present in AccurateRip database
Copy OK
Track 5
Filename C:\EAC rips\05 - Op. 95.wav
Peak level 100.0 %
Extraction speed 1.6 X
Track quality 99.9 %
Test CRC 5284FE20
Copy CRC 5284FE20
Track not present in AccurateRip database
Copy OK
Track 6
Filename C:\EAC rips\06 - Op. 132.wav
Peak level 100.0 %
Extraction speed 1.6 X
Track quality 99.9 %
Test CRC A58868CE
Copy CRC A58868CE
Track not present in AccurateRip database
Copy OK
Track 7
Filename C:\EAC rips\07 - Op. 2 No. 13.wav
Peak level 91.3 %
Extraction speed 1.9 X
Track quality 99.9 %
Test CRC 651AC4E1
Copy CRC 651AC4E1
Track not present in AccurateRip database
Copy OK
Track 8
Filename C:\EAC rips\08 - Op. 130.wav
Peak level 91.5 %
Extraction speed 2.0 X
Track quality 100.0 %
Test CRC 3B5EF129
Copy CRC 3B5EF129
Track not present in AccurateRip database
Copy OK
Track 9
Filename C:\EAC rips\09 - Op. 106.wav
Peak level 79.0 %
Extraction speed 2.0 X
Track quality 100.0 %
Test CRC 930BC19F
Copy CRC 930BC19F
Track not present in AccurateRip database
Copy OK
Track 10
Filename C:\EAC rips\10 - Op. 125.wav
Peak level 68.7 %
Extraction speed 1.0 X
Track quality 100.0 %
Test CRC F88AAF6A
Copy CRC F88AAF6A
Track not present in AccurateRip database
Copy OK
None of the tracks are present in the AccurateRip database
No errors occurred
End of status report
---- CUETools DB Plugin V2.1.4
[CTDB TOCID: QixJbAmE1cTubRd2.ANTFnplJRo-] disk not present in database
Submit result: QixJbAmE1cTubRd2.ANTFnplJRo- has been uploaded
==== Log checksum 9C358AD041AA466EF715441DA67CFF237C9BF4F4BC41995D706877AF379006DD ====
 
Содержание индексной карты (.CUE)
REM GENRE Jazz
REM DATE 2001
REM DISCID 960C280A
REM COMMENT "ExactAudioCopy v1.0b3"
PERFORMER "Julien Pinol"
TITLE "Beethoven: Recorded Live"
FILE "01 - Op. 67.wav" WAVE
TRACK 01 AUDIO
TITLE "Op. 67"
PERFORMER "Julien Pinol"
FLAGS DCP
PREGAP 00:00:01
INDEX 01 00:00:00
FILE "02 - Op. 62.wav" WAVE
TRACK 02 AUDIO
TITLE "Op. 62"
PERFORMER "Julien Pinol"
FLAGS DCP
INDEX 01 00:00:00
FILE "03 - Op. 13.wav" WAVE
TRACK 03 AUDIO
TITLE "Op. 13"
PERFORMER "Julien Pinol"
FLAGS DCP
INDEX 01 00:00:00
FILE "04 - Op. 111.wav" WAVE
TRACK 04 AUDIO
TITLE "Op. 111"
PERFORMER "Julien Pinol"
FLAGS DCP
INDEX 01 00:00:00
FILE "05 - Op. 95.wav" WAVE
TRACK 05 AUDIO
TITLE "Op. 95"
PERFORMER "Julien Pinol"
FLAGS DCP
INDEX 01 00:00:00
FILE "06 - Op. 132.wav" WAVE
TRACK 06 AUDIO
TITLE "Op. 132"
PERFORMER "Julien Pinol"
FLAGS DCP
INDEX 01 00:00:00
FILE "07 - Op. 2 No. 13.wav" WAVE
TRACK 07 AUDIO
TITLE "Op. 2 No. 13"
PERFORMER "Julien Pinol"
FLAGS DCP
INDEX 01 00:00:00
FILE "08 - Op. 130.wav" WAVE
TRACK 08 AUDIO
TITLE "Op. 130"
PERFORMER "Julien Pinol"
FLAGS DCP
INDEX 01 00:00:00
FILE "09 - Op. 106.wav" WAVE
TRACK 09 AUDIO
TITLE "Op. 106"
PERFORMER "Julien Pinol"
FLAGS DCP
INDEX 01 00:00:00
FILE "10 - Op. 125.wav" WAVE
TRACK 10 AUDIO
TITLE "Op. 125"
PERFORMER "Julien Pinol"
FLAGS DCP
INDEX 01 00:00:00
По всем вопросам пишите личное сообщение пользователю M0p94ok.
16:07
201
Нет комментариев. Ваш будет первым!