Вы используете незарегистрированную версию компонента "Вкладки"!

Поиск

(Free Jazz, Free Improvisation) Dave Ballou (Michael Formanek, Randy Peterson) - Insistence - 2007, FLAC (image+.cue), lossless

(Free Jazz, Free Improvisation) Dave Ballou (Michael Formanek, Randy Peterson) - Insistence - 2007, FLAC (image+.cue), lossless
Треклист:
Dave Ballou / Insistence
Жанр: Free Jazz, Free Improvisation
Страна-производитель диска: Denmark
Год издания: 2007
Издатель (лейбл): Steeplechase
Номер по каталогу: sccd 31611
Аудиокодек: FLAC (*.flac)
Тип рипа: image+.cue
Битрейт аудио: lossless
Продолжительность: 64:29
Источник (релизер): cd
Наличие сканов в содержимом раздачи: нет
Треклист:
1 Restraint 6:32
2 MF 8:56
3 Insistence 7:36
4 Upon Reflection 7:51
5 Randy Starts 8:30
6 Once Round 9:27
7 Silly Dance and Coda 8:45
8 Finale 6:49
 
Лог создания рипа
Exact Audio Copy V1.0 beta 2 from 29. April 2011
EAC extraction logfile from 14. July 2013, 15:50
Dave Ballou / Insistence
Used drive : Optiarc DVD RW AD-7170A Adapter: 0 ID: 0
Read mode : Secure
Utilize accurate stream : Yes
Defeat audio cache : Yes
Make use of C2 pointers : No
Read offset correction : 48
Overread into Lead-In and Lead-Out : No
Fill up missing offset samples with silence : Yes
Delete leading and trailing silent blocks : No
Null samples used in CRC calculations : Yes
Used interface : Native Win32 interface for Win NT & 2000
Used output format : User Defined Encoder
Selected bitrate : 320 kBit/s
Quality : High
Add ID3 tag : No
Command line compressor : C:\Program Files\Exact Audio Copy\Flac\flac.exe
Additional command line options : -V -8 -T "Date=%year%" -T "Genre=%genre%" %source%
TOC of the extracted CD
Track | Start | Length | Start sector | End sector
---------------------------------------------------------
1 | 0:00.00 | 6:32.09 | 0 | 29408
2 | 6:32.09 | 8:56.11 | 29409 | 69619
3 | 15:28.20 | 7:36.39 | 69620 | 103858
4 | 23:04.59 | 7:51.39 | 103859 | 139222
5 | 30:56.23 | 8:30.58 | 139223 | 177530
6 | 39:27.06 | 9:27.44 | 177531 | 220099
7 | 48:54.50 | 8:45.28 | 220100 | 259502
8 | 57:40.03 | 6:49.19 | 259503 | 290196
Range status and errors
Selected range
Filename K:\ЕАС\Dave Ballou - Insistence.wav
Peak level 98.8 %
Extraction speed 2.1 X
Range quality 100.0 %
Test CRC 70E92BFF
Copy CRC 70E92BFF
Copy OK
No errors occurred
AccurateRip summary
Track 1 not present in database
Track 2 not present in database
Track 3 not present in database
Track 4 not present in database
Track 5 not present in database
Track 6 not present in database
Track 7 not present in database
Track 8 not present in database
None of the tracks are present in the AccurateRip database
End of status report
==== Log checksum AAE0FCEE696A2EB6D69F2DE153E82AF25F668103BABD3ADB5ACAE5237FB34A9B ====
 
Содержание индексной карты (.CUE)
REM GENRE Jazz
REM DATE 2007
REM DISCID 7D0F1D08
REM COMMENT "ExactAudioCopy v1.0b2"
PERFORMER "Dave Ballou"
TITLE "Insistence"
FILE "Dave Ballou - Insistence.flac" WAVE
TRACK 01 AUDIO
TITLE "Restraint"
PERFORMER "Dave Ballou"
ISRC DKARS0700401
INDEX 01 00:00:00
TRACK 02 AUDIO
TITLE "MF"
PERFORMER "Dave Ballou"
ISRC DKARS0700402
INDEX 00 06:29:26
INDEX 01 06:32:09
TRACK 03 AUDIO
TITLE "Insistence"
PERFORMER "Dave Ballou"
ISRC DKARS0700403
INDEX 00 15:25:37
INDEX 01 15:28:20
TRACK 04 AUDIO
TITLE "Upon Reflection"
PERFORMER "Dave Ballou"
ISRC DKARS0700404
INDEX 00 23:02:01
INDEX 01 23:04:59
TRACK 05 AUDIO
TITLE "Randy Starts"
PERFORMER "Dave Ballou"
ISRC DKARS0700405
INDEX 00 30:53:40
INDEX 01 30:56:23
TRACK 06 AUDIO
TITLE "Once Round"
PERFORMER "Dave Ballou"
ISRC DKARS0700406
INDEX 00 39:24:23
INDEX 01 39:27:06
TRACK 07 AUDIO
TITLE "Silly Dance and Coda"
PERFORMER "Dave Ballou"
ISRC DKARS0700407
INDEX 00 48:51:67
INDEX 01 48:54:50
TRACK 08 AUDIO
TITLE "Finale"
PERFORMER "Dave Ballou"
ISRC DKARS0700408
INDEX 00 57:37:20
INDEX 01 57:40:03
 
Состав
Dave Ballou Composer, Trumpet
Michael Formanek Bass
Randy Peterson Drums
Any questions -> support@pro-jazz.com. По всем вопросам пишите -> support@pro-jazz.com
16:06
162
Нет комментариев. Ваш будет первым!